#TITLE:LA BRISE D'ETE;
#SUBTITLE:;
#ARTIST:Orange Lounge;
#TITLETRANSLIT:;
#SUBTITLETRANSLIT:;
#ARTISTTRANSLIT:;
#GENRE:;
#CREDIT:;
#BANNER:LA BRISE D'ETE-bn.png;
#BACKGROUND:LA BRISE D'ETE-bg.png;
#LYRICSPATH:;
#CDTITLE:;
#MUSIC:LA BRISE D'ETE.ogg;
#OFFSET:0.000000;
#SAMPLESTART:32.849998;
#SAMPLELENGTH:20.000000;
#SELECTABLE:YES;
#DISPLAYBPM:200.000000;
#BPMS:0.000000=200.000000
;
#STOPS:44.000000=0.900000,
105.000000=0.300000
;
#BGCHANGES:;
#KEYSOUNDS:;
#ATTACKS:;

//---------------dance-single - ----------------
#NOTES:
     dance-single:
     :
     Hard:
     11:
     0.612367,0.604769,0.210126,0.136582,0.000000,408.000000,388.000000,20.000000,13.000000,0.000000,0.000000,0.612367,0.604769,0.210126,0.136582,0.000000,408.000000,388.000000,20.000000,13.000000,0.000000,0.000000:
// measure 0
0000
0000
0000
0000
,  // measure 1
0000
0000
0000
0000
,  // measure 2
0000
0000
0000
0000
,  // measure 3
0000
0000
0000
0000
,  // measure 4
0010
0000
1000
0100
1000
0000
0001
0000
,  // measure 5
0000
0000
0010
0001
0100
0010
1000
0000
,  // measure 6
0001
0000
0100
0010
0100
0000
0001
0000
,  // measure 7
0000
0000
1000
0100
0001
1000
0100
0000
,  // measure 8
0010
0000
0001
1000
0001
0000
0100
0000
,  // measure 9
0000
0000
0100
0001
0100
0010
1000
0000
,  // measure 10
0100
0000
1000
0010
1000
0000
0001
0000
,  // measure 11
1100
0000
0010
0000
1000
0001
1000
0001
,  // measure 12
0000
0100
0000
0100
0000
0001
0010
0100
,  // measure 13
1000
0000
0001
0000
0100
0010
0100
0010
,  // measure 14
0000
1000
0000
0001
0000
1000
0010
0000
,  // measure 15
0110
0000
0100
0000
0010
1000
0010
1000
,  // measure 16
0000
0001
0000
0001
0000
0001
0100
0010
,  // measure 17
1000
0000
0100
0000
1000
0001
1000
0001
,  // measure 18
0000
0100
0000
0010
0000
0100
0010
0000
,  // measure 19
1010
0000
0001
0000
1000
0100
1000
0100
,  // measure 20
0000
0010
0000
0010
0000
0001
1000
0010
,  // measure 21
0100
0000
0001
0000
0010
0100
0010
0100
,  // measure 22
0000
1000
0000
1000
0000
1000
0001
0000
,  // measure 23
0101
0000
0010
0000
1000
0100
1000
0100
,  // measure 24
0000
0010
0000
0001
0000
0100
0001
1000
,  // measure 25
0010
0000
1000
0000
0010
0100
0010
0100
,  // measure 26
0000
2000
0000
0001
0001
0000
3100
0000
,  // measure 27
1001
0000
1000
0010
1000
0100
0000
0200
,  // measure 28
0000
0000
0000
0001
0001
0000
1300
0000
,  // measure 29
1100
0000
1000
0010
1000
0001
0000
0002
,  // measure 30
0000
0000
0000
0100
0100
0000
0013
0000
,  // measure 31
0011
0000
0001
1000
0001
0010
0000
0020
,  // measure 32
0000
0000
0000
1000
1000
0000
0130
0000
,  // measure 33
0110
0000
0010
0001
1000
0001
0000
2000
,  // measure 34
0000
0000
0000
0100
0100
0000
3010
0000
,  // measure 35
1010
0000
1000
0100
0010
0001
0100
0020
,  // measure 36
1000
0000
0000
0001
0001
0000
0130
0000
,  // measure 37
0101
0000
0001
1000
0100
0010
0001
0200
,  // measure 38
0010
0000
0000
1000
1000
0000
0301
0000
,  // measure 39
1001
0000
0010
1000
0100
0010
0001
2000
,  // measure 40
0100
0000
0000
0010
0010
0000
3001
0000
,  // measure 41
1100
0000
0010
0100
0001
0010
0100
2000
,  // measure 42
0001
3020
0230
0302
,  // measure 43
1003
0010
1000
0010
1000
0000
0001
0010
,  // measure 44
0001
0010
0001
0000
0100
0010
0100
0010
,  // measure 45
0100
0000
0001
1000
0100
0000
0100
0000
,  // measure 46
0000
0000
1000
0001
0010
0000
0010
0000
,  // measure 47
0001
0100
0001
0100
0001
0000
1000
0100
,  // measure 48
1000
0100
1000
0000
0010
0100
0010
0100
,  // measure 49
0010
0000
0100
0010
1000
0000
1000
0000
,  // measure 50
0000
0000
0010
0100
0001
0000
0001
0000
,  // measure 51
1000
0100
1000
0100
1000
0000
1000
0010
,  // measure 52
1000
0010
1000
0000
1000
0001
1000
0001
,  // measure 53
1000
0000
0010
0100
0001
0000
1000
0000
,  // measure 54
0000
0000
0001
0010
0100
0000
1000
0000
,  // measure 55
0001
0010
0001
0010
0001
0000
0001
0100
,  // measure 56
0001
0100
0001
0000
0001
1000
0001
1000
,  // measure 57
0001
0000
1000
0010
0100
0000
0001
0000
,  // measure 58
0100
0000
0000
0001
1000
0000
0010
0000
,  // measure 59
1000
0100
0010
0100
1000
0000
0001
0010
,  // measure 60
0100
0010
0001
0000
1000
0001
0100
0001
,  // measure 61
1000
0000
0010
0100
0010
0100
0000
0001
,  // measure 62
0000
1000
0001
0000
0011
0000
0011
0000
,  // measure 63
0100
0001
1000
0001
0100
0000
0010
1000
,  // measure 64
0001
1000
0010
0000
0100
0001
0010
0001
,  // measure 65
0100
0000
0010
1000
0010
1000
0000
0001
,  // measure 66
0000
0001
0100
0000
1010
0000
1010
0000
,  // measure 67
1000
0010
0100
0001
0010
0000
0100
1000
,  // measure 68
0001
0100
0010
0000
0100
0001
0010
0100
,  // measure 69
1000
0000
0001
0010
0001
0010
0000
0100
,  // measure 70
0000
0100
1000
0000
1100
0000
1100
0000
,  // measure 71
0010
1000
0100
1000
0001
0000
0010
0001
,  // measure 72
0010
0100
1000
0000
0001
1000
0001
0010
,  // measure 73
0100
0000
1000
0001
1000
0001
0000
0010
,  // measure 74
0000
0100
0010
0000
0101
0000
0101
0000
,  // measure 75
0020
0000
0000
0000
,  // measure 76
0000
0000
0000
0030
;
