#VERSION:0.83;
#TITLE:Initiation;
#SUBTITLE:;
#ARTIST:BEMANI Sound Team "Nazo no seiryoku";
#TITLETRANSLIT:;
#SUBTITLETRANSLIT:;
#ARTISTTRANSLIT:;
#GENRE:;
#ORIGIN:;
#CREDIT:;
#BANNER:Initiation-bn.png;
#BACKGROUND:Initiation-bg.png;
#PREVIEWVID:;
#JACKET:Initiation-jacket.png;
#CDIMAGE:;
#DISCIMAGE:;
#LYRICSPATH:;
#CDTITLE:;
#MUSIC:Initiation.ogg;
#OFFSET:0.000000;
#SAMPLESTART:12.938000;
#SAMPLELENGTH:20.000000;
#SELECTABLE:YES;
#DISPLAYBPM:40.000000:160.000000;
#BPMS:0.000=160.000,
192.000=40.000,
204.000=80.000,
212.000=160.000;
#STOPS:32.000=0.750,
125.500=0.750;
#DELAYS:;
#WARPS:;
#TIMESIGNATURES:0.000=4=4;
#TICKCOUNTS:0.000=4;
#COMBOS:0.000=1;
#SPEEDS:0.000=1.000=0.000=0;
#SCROLLS:0.000=1.000;
#FAKES:;
#LABELS:0.000=Song Start;
#BGCHANGES:;
#KEYSOUNDS:;
#ATTACKS:
;

//---------------dance-single - ----------------
#NOTEDATA:;
#CHARTNAME:;
#STEPSTYPE:dance-single;
#DESCRIPTION:;
#CHARTSTYLE:;
#DIFFICULTY:Hard;
#METER:13;
#RADARVALUES:0.553714,0.591249,0.334275,0.254686,0.135302,487.000000,445.000000,42.000000,32.000000,0.000000,0.000000,0.000000,0.000000,0.000000,0.553714,0.591249,0.334275,0.254686,0.135302,487.000000,445.000000,42.000000,32.000000,0.000000,0.000000,0.000000,0.000000,0.000000;
#CREDIT:;
#DISPLAYBPM:40.000000:160.000000;
#NOTES:
// measure 0
0000
0000
0000
0000
,  // measure 1
0000
0000
0000
0000
,  // measure 2
0000
0000
0000
0000
,  // measure 3
0000
0000
0000
0000
,  // measure 4
1001
0010
0100
0010
,  // measure 5
1000
0100
0010
0001
,  // measure 6
1000
0000
0000
0001
0000
0000
1000
0000
1000
0000
1000
0100
,  // measure 7
0001
0000
0001
0000
0001
0100
1000
0100
1000
0001
0100
0001
,  // measure 8
0020
0001
0001
0031
0100
0001
0010
0001
,  // measure 9
0100
0010
1000
0100
0010
0001
0010
0100
,  // measure 10
1000
0001
0010
0100
0010
0100
0010
0001
,  // measure 11
0100
1000
0100
0001
1000
0001
1000
0010
,  // measure 12
0001
0010
1000
0100
0010
1000
0100
0001
,  // measure 13
1000
0010
0100
0010
0100
0001
1000
0100
,  // measure 14
0001
0010
0100
1000
0001
1000
0010
0100
,  // measure 15
1000
0010
0100
0001
0010
0001
0100
1000
,  // measure 16
0001
1000
0010
0100
0001
1000
1100
0000
,  // measure 17
1000
0001
0101
0000
0100
0010
1010
0000
,  // measure 18
0010
0100
0110
0000
0001
0010
0011
0000
,  // measure 19
1000
0010
0110
0000
0100
0001
1001
0000
,  // measure 20
0100
1000
1010
0000
0001
0100
0101
0000
,  // measure 21
0010
0000
1000
0000
0001
1000
0001
0000
1000
0000
0100
0000
1100
0000
0000
0000
,  // measure 22
0010
0000
0001
0000
1000
0010
1000
0000
0001
0010
0000
0000
1000
0010
0000
0000
,  // measure 23
0001
0100
0000
0000
1000
0100
0000
0000
0001
0000
0001
0000
0010
0000
0010
0000
,  // measure 24
0100
0000
0100
0000
1000
0000
1000
0000
1001
0000
0000
0000
1001
0000
0000
1000
,  // measure 25
0010
0000
0000
0100
0000
0000
0001
0000
0000
1000
0001
0000
0010
0000
0010
0000
,  // measure 26
0001
0000
0000
1000
0000
0000
0100
0000
0110
0000
0000
0000
0110
0000
0000
0010
,  // measure 27
0001
0000
0000
0100
0000
0000
1000
0000
0000
0010
0100
0000
0001
0000
0001
0000
,  // measure 28
1000
0000
0100
0000
0100
0000
0100
0000
1100
0000
0000
0000
1100
0000
0000
1000
,  // measure 29
0001
1000
0000
0010
0000
0100
0001
0000
0000
1000
0100
0000
0010
0000
0010
0000
,  // measure 30
0001
1000
0000
0100
0000
1000
0001
0000
0101
0000
0000
0000
0101
0000
0000
0010
,  // measure 31
0100
0010
0000
1000
0000
0000
1002
0000
0000
0000
0100
0000
0100
0000
0103
0000
,  // measure 32
0001
0010
0100
1000
0010
1000
0001
0100
,  // measure 33
0010
1000
0100
0001
1000
0100
0010
0100
,  // measure 34
1000
0100
0010
0001
0010
0100
0001
1000
,  // measure 35
0001
0010
1000
0100
1000
0001
0100
0010
,  // measure 36
1000
0001
0010
0001
0100
0010
1000
0100
,  // measure 37
0010
1000
0001
1000
0100
0010
0100
0001
,  // measure 38
1000
0001
0010
0100
0010
0100
1000
0100
,  // measure 39
0010
1000
0001
0100
0010
0100
0001
1000
,  // measure 40
1001
0100
0010
0100
,  // measure 41
1000
0010
0100
0001
,  // measure 42
0010
0100
0001
0100
,  // measure 43
1000
0001
0010
0100
,  // measure 44
1001
0010
1000
0100
0010
0001
1000
0000
,  // measure 45
0110
1000
0100
0010
0001
0100
1000
0000
,  // measure 46
1000
1000
1000
1000
,  // measure 47
0001
0001
0001
0001
,  // measure 48
2002
0000
0000
3000
0203
0000
0020
0300
2000
0000
0000
0000
0000
0000
0000
0030
,  // measure 49
0002
0000
3000
0000
2000
0003
0200
3000
0020
0000
0000
0000
0000
0000
0000
0300
,  // measure 50
0200
0000
0000
0030
0020
0300
0002
0030
2003
0000
0200
0300
0002
0003
0200
3300
,  // measure 51
2200
0000
3300
1001
0022
0000
0033
1001
,  // measure 52
0220
0000
0000
0300
2000
3000
0002
0033
,  // measure 53
1010
0010
0100
0001
1000
0100
0001
0010
,  // measure 54
0100
0001
1000
0010
0001
0100
1000
0010
,  // measure 55
0100
0001
0010
1000
0100
0001
1000
0010
,  // measure 56
1000
0001
0010
0100
0010
0100
0001
1000
,  // measure 57
1010
0010
0100
0001
1000
0100
0010
0000
,  // measure 58
0011
0001
1000
0100
1000
0010
0001
0000
,  // measure 59
0101
0100
0010
1000
0100
1000
0001
0000
,  // measure 60
1002
0100
0103
0000
2001
0100
3100
0000
,  // measure 61
0110
0100
1000
0001
0010
0001
0100
1000
,  // measure 62
0001
0010
0100
0010
1000
0001
1000
0100
,  // measure 63
0010
0100
1000
0001
0100
1000
0010
0001
,  // measure 64
1000
0001
1000
0010
0100
0001
0100
0010
,  // measure 65
1010
1000
0001
0100
1000
0010
0100
0000
,  // measure 66
0101
0001
1000
0010
0100
1000
0100
0000
,  // measure 67
0110
0100
0001
1000
0100
0010
0001
0000
,  // measure 68
0012
1000
1003
0000
2100
0001
3001
0000
,  // measure 69
2002
0000
0000
0000
,  // measure 70
0000
0000
0000
3003
;
