#TITLE:Garuda;
#SUBTITLE:;
#ARTIST:kors k;
#TITLETRANSLIT:;
#SUBTITLETRANSLIT:;
#ARTISTTRANSLIT:;
#GENRE:;
#CREDIT:;
#BANNER:Garuda-bn.png;
#BACKGROUND:Garuda-bg.png;
#LYRICSPATH:;
#CDTITLE:;
#MUSIC:Garuda.ogg;
#OFFSET:0.000000;
#SAMPLESTART:0.000000;
#SAMPLELENGTH:20.000000;
#SELECTABLE:YES;
#DISPLAYBPM:160.000000;
#BPMS:0.000000=160.000000
;
#STOPS:
;
#BGCHANGES:;
#KEYSOUNDS:;
#ATTACKS:;

//---------------dance-single - ----------------
#NOTES:
     dance-single:
     :
     Hard:
     11:
     0.543057,0.595100,0.341925,0.321812,0.397236,378.000000,344.000000,34.000000,32.000000,0.000000,0.000000,0.543057,0.595100,0.341925,0.321812,0.397236,378.000000,344.000000,34.000000,32.000000,0.000000,0.000000:
0000
0000
0000
0000
,
0000
0000
0000
0000
,
0000
0000
0000
0000
,
0000
0000
0000
0000
,
0000
0000
0001
0010
2000
0000
0000
0000
,
3001
0100
0010
1000
0001
0010
0100
1000
,
0000
0000
1000
0100
0002
0000
0000
1000
,
1003
0001
0010
0100
1000
0001
0100
0010
,
1001
0000
0000
0000
1001
0000
0000
0000
0001
0000
0000
0001
0000
0000
0001
0000
,
1000
0000
0000
1000
0000
0000
1000
0000
0001
0000
0100
0000
0010
0000
1000
0000
,
1100
0000
0000
0000
1100
0000
0000
0000
0010
0000
0000
0010
0000
0000
0010
0000
,
0100
0000
0000
0100
0000
0000
0100
0000
0001
0000
1000
0000
0010
0000
0100
0000
,
0110
0000
0000
0000
0110
0000
0000
0000
0010
0000
0000
1000
0000
0000
0100
0000
,
0010
0000
0000
0001
0000
0000
0100
0000
0010
0000
1000
0000
0001
0000
0100
0000
,
0101
0101
1100
0101
,
2002
0000
0000
3003
,
0010
0000
0000
0010
0000
0000
0010
0000
0100
0000
0000
0100
0000
0000
0100
0000
,
0001
0000
0000
1000
0000
0000
0001
0000
0010
0000
0001
0000
1000
0000
0100
0000
,
0010
0000
0000
0010
0000
0000
0010
0000
0001
0000
0000
0001
0000
0000
0001
0000
,
0100
0000
0000
0001
0000
0000
1000
0000
0010
0000
1000
0000
0100
0000
0010
0000
,
2001
0000
0000
0000
3002
0000
0000
0000
1003
0000
0000
1000
0000
0000
1000
0000
,
0001
0000
0000
0010
0000
0000
0001
0000
0100
0000
0010
0000
1000
0000
0001
0000
,
1000
0000
0000
0100
0000
0000
1000
0000
0001
0000
0000
0100
0000
0000
0001
0000
,
1000
0100
0001
0000
1000
0010
0001
0000
,
0110
0000
0000
1000
0001
1000
0001
0000
0000
0101
0000
0000
,
1100
0000
0000
0010
0100
0010
0100
0000
0000
0000
0000
0000
,
1010
0000
0000
0100
0010
0100
0010
0000
0000
0101
0000
0000
,
1001
0000
0000
1000
0001
1000
0001
0000
0000
0000
0000
0000
,
1000
0000
0100
0000
0010
0000
0001
0000
0010
0000
0100
0000
,
1000
0000
1000
0001
1000
0000
0110
0000
0000
0000
0000
0000
,
0010
0000
0000
0100
0000
0000
0001
0000
1000
0000
0000
0001
0000
0000
0100
0000
,
0001
0000
0000
0010
0000
0000
0100
0000
1000
0000
0000
0000
0000
0000
0000
0000
,
0000
0000
1000
0100
0020
0000
0000
0000
,
0031
0010
0100
1000
0010
1000
0001
0100
,
0000
0000
0001
1000
0200
0000
0000
1000
,
1300
0100
0010
0001
1000
0001
0010
0100
,
0000
0000
0100
1000
0002
0000
0000
0000
,
0013
0001
1000
0001
0100
0010
1000
0100
,
0000
1000
1000
0001
0200
0000
0000
0010
,
0310
0100
0001
1000
0100
1000
0001
0010
,
0001
0000
0000
0000
0001
0000
0100
0000
1000
0000
0000
1000
0000
0000
1000
0000
,
0001
0010
0100
1000
0010
0100
0001
1000
,
0100
0000
0000
0000
0100
0000
1000
0000
0001
0000
0000
0001
0000
0000
0001
0000
,
0010
0001
0100
0001
1000
0010
1000
0100
,
1000
0000
0000
1000
0000
0000
0100
0000
0010
0000
0000
0001
0000
0000
0001
0000
,
0100
0000
0000
0001
0000
0000
1000
0000
0001
0000
0010
0000
0100
0000
1000
0000
,
0010
0000
0000
1000
0000
0000
0100
0000
0010
0000
0000
0001
0000
0000
0100
0000
,
0220
0000
0000
0330
,
1001
0000
0000
0100
0000
0010
0000
0000
1000
0000
0000
0001
0000
0000
0100
0000
,
0001
0000
0000
0010
0000
0000
0100
0000
1000
0000
0000
0000
0101
0000
0000
0000
,
1010
0000
0000
1000
0000
0001
0000
0000
0100
0000
0000
0001
0000
0000
1000
0000
,
0010
0000
0000
1000
0000
0000
0100
0000
0010
0000
0000
0000
0011
0000
0000
0000
,
1100
0000
0000
1000
0000
0001
0000
0000
0100
0000
0000
0100
0000
0000
0100
0000
,
0010
0000
0000
0100
0000
0000
0001
0000
1000
0000
0000
0000
1001
0000
0000
0000
,
0110
0000
0000
0010
0000
1000
0000
0000
0001
0000
0000
0100
0000
0000
1000
0000
,
0010
1000
0100
0000
0010
0001
0100
0000
,
0210
0000
0320
0000
0230
0000
0302
0000
0023
0000
0230
0000
,
2300
0000
3002
0000
2003
0000
3100
0000
0100
1000
0000
0000
,
1002
0000
2003
0000
3002
0000
0023
0000
0230
0000
0320
0000
,
0032
0000
2003
0000
3020
0000
0130
0000
0100
0001
0000
0000
,
0011
0000
0000
0001
0100
0000
0110
0000
0000
0010
1000
0000
,
1100
0000
1000
0001
1000
0000
0101
0000
0000
0010
0000
0000
,
1000
0000
1000
0000
1000
0000
0001
0000
0001
0000
0001
0000
,
1000
0000
0100
0000
0010
0000
0001
0000
0000
0000
0000
0000
,
2002
0000
0000
0000
,
0000
0000
0000
3003
;

//---------------dance-single - ----------------
#NOTES:
     dance-single:
     :
     Challenge:
     14:
     0.759993,0.826528,0.653680,0.201132,0.799501,529.000000,464.000000,65.000000,20.000000,0.000000,0.000000,0.759993,0.826528,0.653680,0.201132,0.799501,529.000000,464.000000,65.000000,20.000000,0.000000,0.000000:
0000
0000
0000
0000
,
0000
0000
0000
0000
,
0000
0000
0000
0000
,
0000
0000
0000
0000
,
0000
0000
0001
0100
2002
0000
3000
0000
,
0013
0000
0001
0000
1000
0000
0001
0000
1000
0000
0100
0010
0100
0000
1000
0000
,
0000
0010
0010
1000
0220
0000
0030
0001
,
0301
0000
0100
0000
0010
0000
1000
0000
0001
0000
1000
0010
1000
0000
0100
0000
,
1100
0000
0000
0000
1100
0000
0000
0000
0010
0000
0001
0100
0000
0001
0100
0000
,
0010
0000
1000
0100
0000
1000
0100
0000
1000
0000
0100
0000
0010
0000
0001
0000
,
0101
0000
0000
0000
0101
0000
0000
0000
0010
0000
1000
0001
0000
1000
0001
0000
,
0100
0000
0001
1000
0000
0001
1000
0000
0001
0000
0010
0000
0100
0000
1000
0000
,
1010
0000
0000
0000
1010
0000
0000
0000
0001
0000
1000
0100
0000
1000
0100
0000
,
0010
0000
0001
0100
0000
0001
0100
0000
0010
0000
0100
0000
0001
0000
1000
0000
,
1001
0000
0000
0000
1001
0000
0000
0000
0010
0000
0001
1000
0000
0001
1000
0000
,
2002
0000
0000
3003
,
0010
0000
1000
0100
0000
0100
1000
0000
0001
0000
0100
0001
0000
0001
0010
0000
,
0100
0000
1000
0001
0000
0001
1000
0000
0010
0000
0100
0000
0001
0000
1000
0000
,
0100
0000
0001
0010
0000
0010
0100
0000
1000
0000
0010
1000
0000
1000
0001
0000
,
0010
0000
0001
0100
0000
0001
0100
0000
0010
0000
0100
0000
0001
0000
1000
0000
,
0010
0000
0001
1000
0000
1000
0100
0000
0010
0000
0100
1000
0000
0001
0100
0000
,
0001
0000
1000
0010
0000
0010
0100
0000
1000
0000
0001
0000
0100
0000
0010
0000
,
1000
0000
0001
0100
0000
0100
0010
0000
1000
0000
0100
0010
0000
0010
0001
0000
,
1001
0100
0010
1000
0001
0100
0110
0000
,
1001
0000
0000
0001
0010
0001
0010
0001
0100
0010
1000
0100
,
1000
0100
1000
0001
0100
0001
1000
0000
0000
0000
0000
0000
,
1010
0000
0000
1000
0010
1000
0010
0100
0010
0100
0001
1000
,
0001
1000
0001
0010
0100
1000
0010
0000
0000
0000
0000
0000
,
1010
0000
0010
1000
0100
0000
1100
0000
1010
0000
1001
0000
,
0110
0000
0010
0100
0001
0000
1001
0000
0000
1000
0001
1000
,
0001
0000
0000
1001
0000
0000
0100
0000
0110
0000
0000
1010
0000
0000
1000
0000
,
1001
0000
0000
0101
0000
0000
0002
0000
2000
0000
0000
0000
3003
0000
0000
0000
,
0000
0000
0010
1000
2200
0000
0300
0000
,
3001
0000
1000
0000
0001
0000
0010
0000
0100
0000
1000
0001
1000
0000
0010
0000
,
0000
0100
0100
0001
0022
0000
0030
1000
,
1003
0000
0001
0010
0001
0000
0100
0000
1000
0000
0001
0000
0100
0000
0010
0000
,
0000
0000
1000
0001
0202
0000
0003
0000
,
0301
0000
0010
0000
0001
0000
0100
0000
0010
0000
1000
0100
1000
0000
0100
0000
,
0000
1000
1000
0001
2020
0000
3000
0100
,
0130
0000
0010
0000
1000
0000
0100
0000
0010
0000
0001
1000
0001
0000
0100
0000
,
0010
0000
1000
0100
0000
1000
0100
0000
0010
0000
0001
0100
0000
0001
0010
0000
,
0001
0000
1000
0100
0000
0100
0010
0000
0001
0000
1000
0000
0010
0000
0100
0000
,
0010
0000
1000
0100
0000
0100
0010
0000
0100
0000
1000
0001
0000
0001
1000
0000
,
0001
0000
0010
0001
0000
0100
0001
0000
1000
0000
0100
0000
1000
0000
0010
0000
,
0100
0000
0001
1000
0000
0100
0010
0000
0100
0000
1000
0001
0000
0010
0001
0000
,
0010
0000
0001
1000
0000
0100
1000
0000
0100
0000
0010
0000
0001
0000
0010
0000
,
0001
0000
1000
0100
0000
0001
0010
0000
0100
0000
1000
0001
0000
0100
0010
0000
,
0220
0000
0000
0330
,
1001
0000
0000
0001
0000
1000
0000
0100
0010
0000
0100
1000
0000
1000
0001
0000
,
0100
0000
0001
1000
0000
1000
0100
1000
0001
0000
0000
0000
0101
0000
0000
0000
,
0110
0000
0000
0010
0000
1000
0000
0001
0100
0000
0001
0010
0000
0100
1000
0000
,
0001
0000
0100
0010
0000
0010
1000
0100
1000
0000
0001
0000
0100
0000
0010
0000
,
1010
0000
0000
1000
0000
0100
0000
1000
0010
0000
0100
0001
0000
0010
0001
0000
,
1000
0000
0001
0010
0000
0010
0100
1000
0001
0000
0000
0000
0101
0000
0000
0000
,
0011
0000
0000
0001
0000
1000
0000
0001
0010
0000
0100
1000
0000
1000
0010
0000
,
0110
0100
0001
0010
0100
1000
1001
0000
,
1100
0000
1100
0000
1100
0000
0101
0000
0101
0000
0101
0000
,
1100
0000
0101
0000
1100
0000
0101
0000
1000
0001
0000
0000
,
0011
0000
0011
0000
0011
0000
1010
0000
1010
0000
1010
0000
,
0011
0000
1010
0000
0011
0000
1010
0000
0010
0100
0001
1000
,
0001
0000
0001
1000
0100
0000
1100
0000
1001
0000
0110
0000
,
0101
0000
0010
1000
0100
0000
1001
0000
0010
0100
0000
0000
,
0001
0010
0001
1000
0010
1000
0001
0100
0001
1000
0100
1000
,
0001
0010
0100
1000
0100
0010
0001
0000
0000
0000
0000
0000
,
2002
0000
0000
0000
,
0000
0000
0000
3003
;

//---------------dance-single - ----------------
#NOTES:
     dance-single:
     :
     Medium:
     9:
     0.436745,0.495917,0.422378,0.241359,0.170963,304.000000,262.000000,42.000000,24.000000,0.000000,0.000000,0.436745,0.495917,0.422378,0.241359,0.170963,304.000000,262.000000,42.000000,24.000000,0.000000,0.000000:
0000
0000
0000
0000
,
0000
0000
0000
0000
,
0000
0000
0000
0000
,
0000
0000
0000
0000
,
0000
0000
0001
1000
0001
0000
0000
0000
,
0010
0000
0000
0000
0100
0000
0000
0000
1000
0000
0000
0001
0100
0000
0010
0000
,
0000
0000
1000
0001
1000
0000
0000
0000
,
0010
0000
0000
0000
1000
0000
0000
0000
0100
0000
0000
1000
0001
0000
0010
0000
,
0001
0002
0100
0100
,
1000
1000
0010
0010
,
1000
2003
0010
0010
,
0001
0001
0100
0100
,
0010
3020
0100
0100
,
0001
0001
1000
1000
,
0100
0230
1000
0301
,
2002
0000
0000
3003
,
0010
1010
0001
0101
,
1000
0000
0101
0000
0001
0100
0010
0000
,
0100
1001
0010
1001
,
1000
0000
0110
0000
0001
0100
0010
0000
,
1000
1100
0010
0101
,
0100
0000
1001
0000
0010
1000
0001
0000
,
1000
1100
0001
0011
,
2020
0000
0000
3030
,
1002
0000
0000
0103
0000
0000
0110
0000
0000
1000
0000
0001
,
0100
0000
0000
0001
0000
1000
0100
0000
0000
0000
0000
0000
,
2001
0000
0000
3100
0000
0000
0110
0000
0000
0001
0000
0100
,
0010
0000
0000
1000
0000
0010
0100
0000
0000
0000
0000
0000
,
0011
0000
0000
0001
1000
0000
0110
0000
0000
0110
0000
0000
,
1001
0000
0000
1000
0100
0000
1100
0000
0000
0000
0000
0000
,
0010
0110
0100
0101
,
1000
0011
1001
0000
,
0000
0000
1000
0100
1000
0000
0000
0000
,
0010
0000
0000
0000
0100
0000
0000
0000
0001
0000
0000
1000
0001
0000
0100
0000
,
0000
0000
0010
1000
0010
0000
0000
0000
,
1000
0000
0000
0000
0100
0000
0000
0000
0010
0000
0000
0001
0100
0000
0001
0000
,
0000
0000
0001
0010
0001
0000
0000
0000
,
0100
0000
0000
0000
0001
0000
0000
0000
0100
0000
0000
0010
1000
0000
0001
0000
,
0000
0000
0100
0001
0100
0000
0000
0000
,
0001
0000
0000
0000
0010
0000
0000
0000
0100
0000
0000
1000
0010
0000
0100
0000
,
0000
0000
0001
1000
0001
0000
0000
0000
,
0010
0000
0000
0010
0000
0000
0010
0000
1000
0000
0001
0000
0100
0000
0001
0000
,
0000
0000
0000
0000
0100
0010
0100
0000
,
0001
0000
0000
0001
0000
0000
0001
0000
1000
0000
0010
0000
1000
0000
0100
0000
,
1000
0000
0000
1000
0000
0000
1000
0000
0001
0000
0000
0001
0000
0000
0001
0000
,
0100
0000
0000
0100
0000
0000
0100
0000
0001
0000
1000
0000
0100
0000
0000
0000
,
1000
0000
0000
0010
0000
0000
0100
0000
0001
0000
0000
0010
0000
0000
0100
0000
,
2002
0000
0000
3003
,
0010
0000
0000
0000
0110
0000
0000
0000
0100
0000
0000
0001
0000
0000
1000
0000
,
0001
0000
0000
0010
0001
0000
0000
0000
0100
0000
0010
0000
1000
0000
0000
0000
,
0010
0000
0000
0000
1100
0000
0000
0000
0001
0000
0000
1000
0000
0000
0100
0000
,
0010
0000
0000
0100
0010
0000
0000
0000
0001
0000
0100
0000
1000
0000
0000
0000
,
0001
0000
0000
0000
0011
0000
0000
0000
0010
0000
0000
0100
0000
0000
1000
0000
,
0100
0000
0000
1000
0001
0000
0000
0000
0010
0000
1000
0000
0001
0000
0000
0000
,
1000
0101
0001
1100
,
0022
0000
0000
0033
,
0001
0011
1000
1010
,
0020
0000
0230
0000
0302
0000
2000
0000
0000
3003
0000
0000
,
0100
1001
0010
1100
,
0002
0000
0023
0000
0230
0000
2000
0000
0000
3300
0000
0000
,
0010
0000
1000
0001
0000
0000
1001
0000
0000
1001
0000
0000
,
0001
0000
1000
0100
0000
0000
1010
0000
0000
0000
0000
0000
,
0001
0000
0010
0001
0000
0000
1000
0000
0010
1000
0000
0000
,
0001
0000
1000
0010
0000
0000
0110
0000
0000
0000
0000
0000
,
2002
0000
0000
0000
,
0000
0000
0000
3003
;

//---------------dance-single - ----------------
#NOTES:
     dance-single:
     :
     Easy:
     4:
     0.288769,0.330611,0.130736,0.100566,0.000000,201.000000,188.000000,13.000000,10.000000,0.000000,0.000000,0.288769,0.330611,0.130736,0.100566,0.000000,201.000000,188.000000,13.000000,10.000000,0.000000,0.000000:
0000
0000
0000
0000
,
0000
0000
0000
0000
,
0000
0000
0000
0000
,
0000
0000
0000
0000
,
0000
0001
0001
0000
,
0010
0001
1000
0100
,
0000
1000
1000
0000
,
0010
1000
0001
0100
,
0110
0110
0000
0000
,
1000
0100
0001
0000
,
1001
1001
0000
0000
,
0010
1000
0100
0000
,
0110
0110
0000
0000
,
1000
0001
0010
0000
,
1001
1001
0000
0000
,
0220
0000
0000
0330
,
1000
0100
0001
0100
,
1000
0010
0001
0000
,
0001
0010
1000
0010
,
0001
0100
1000
0000
,
0010
0100
0001
1000
,
0100
0010
0001
0000
,
1000
1000
0001
0001
,
2002
0000
0000
3003
,
0010
1000
0100
0100
,
1000
0010
0001
0000
,
1000
0001
0010
0010
,
0001
0100
1000
0000
,
0001
0001
1000
1000
,
0010
0100
0010
0000
,
1000
0100
0010
0100
,
1000
0010
0001
0000
,
0000
0001
1000
0000
,
0010
0100
0001
1000
,
0000
0100
0010
0000
,
0100
1000
0010
0001
,
0000
1000
0001
0000
,
0010
0001
0100
1000
,
0000
0010
0100
0000
,
0001
0010
0100
1000
,
0000
0010
0010
0000
,
1000
0100
0001
0010
,
0000
0100
0100
0000
,
0001
1000
0100
0010
,
0001
0001
1000
1000
,
0010
0010
0100
0100
,
0001
0010
0100
1000
,
0220
0000
0000
0330
,
0010
1000
0100
1000
,
0100
0010
0001
0000
,
0001
0100
0010
0100
,
0010
1000
0001
0000
,
1000
0100
0010
0001
,
1000
0010
0001
0000
,
0100
0001
0010
1000
,
2002
0000
0000
3003
,
0010
0010
0100
0100
,
0010
0100
0010
0000
,
1000
1000
0001
0001
,
1000
0001
1000
0000
,
0001
0100
1000
1000
,
0001
0100
1000
0000
,
1000
0010
0001
0001
,
1000
0010
0001
0000
,
2002
0000
0000
0000
,
0000
0000
0000
3003
;

//---------------dance-single - ----------------
#NOTES:
     dance-single:
     :
     Beginner:
     2:
     0.152286,0.225268,0.050283,0.000000,0.000000,106.000000,101.000000,5.000000,0.000000,0.000000,0.000000,0.152286,0.225268,0.050283,0.000000,0.000000,106.000000,101.000000,5.000000,0.000000,0.000000,0.000000:
// measure 0
0000
0000
0000
0000
,  // measure 1
0000
0000
0000
0000
,  // measure 2
0000
0000
0000
0000
,  // measure 3
0000
0000
0000
0000
,  // measure 4
0000
0000
0001
0000
,  // measure 5
0000
0000
0001
0000
,  // measure 6
0000
0000
1000
0000
,  // measure 7
0000
0000
1000
0000
,  // measure 8
0010
0010
0000
0000
,  // measure 9
0000
0000
0000
0000
,  // measure 10
0100
0100
0000
0000
,  // measure 11
0000
0000
0000
0000
,  // measure 12
0001
0001
0000
0000
,  // measure 13
0000
0000
0000
0000
,  // measure 14
1000
1000
0000
0000
,  // measure 15
0110
0000
0000
0000
,  // measure 16
0001
0000
0001
0000
,  // measure 17
1000
0000
1000
0000
,  // measure 18
0010
0000
0010
0000
,  // measure 19
0100
0000
0100
0000
,  // measure 20
0001
0000
0010
0000
,  // measure 21
0100
0000
1000
0000
,  // measure 22
0010
0000
0010
0000
,  // measure 23
1001
0000
0000
0000
,  // measure 24
1000
0000
1000
0000
,  // measure 25
1000
0000
1000
0000
,  // measure 26
0001
0000
0001
0000
,  // measure 27
0001
0000
0001
0000
,  // measure 28
0010
0000
0010
0000
,  // measure 29
0010
0000
0010
0000
,  // measure 30
0100
0000
0100
0000
,  // measure 31
0100
0000
0100
0000
,  // measure 32
0000
0000
0001
0000
,  // measure 33
0000
0000
0001
0000
,  // measure 34
0000
0000
1000
0000
,  // measure 35
0000
0000
1000
0000
,  // measure 36
0000
0000
0010
0000
,  // measure 37
0000
0000
0010
0000
,  // measure 38
0000
0000
0100
0000
,  // measure 39
0000
0000
0100
0000
,  // measure 40
0000
0000
0001
0000
,  // measure 41
1000
0000
0001
0000
,  // measure 42
0000
0000
1000
0000
,  // measure 43
0001
0000
1000
0000
,  // measure 44
0001
0000
0001
0000
,  // measure 45
1000
0000
1000
0000
,  // measure 46
0010
0000
0100
0000
,  // measure 47
1001
0000
0000
0000
,  // measure 48
0010
0000
1000
0000
,  // measure 49
0100
0000
0001
0000
,  // measure 50
0010
0000
0001
0000
,  // measure 51
0100
0000
1000
0000
,  // measure 52
0001
0000
1000
0000
,  // measure 53
0100
0000
0010
0000
,  // measure 54
0100
0000
1000
0000
,  // measure 55
0110
0000
0000
0000
,  // measure 56
0001
0000
0001
0000
,  // measure 57
0001
0001
0001
0000
,  // measure 58
0100
0000
0100
0000
,  // measure 59
0100
0100
0100
0000
,  // measure 60
0010
0000
0010
0000
,  // measure 61
0010
0010
0010
0000
,  // measure 62
1000
0000
1000
0000
,  // measure 63
1000
1000
1000
0000
,  // measure 64
1001
0000
0000
0000
;
