#TITLE:Ganymede;
#SUBTITLE:;
#ARTIST:Genbu;
#TITLETRANSLIT:;
#SUBTITLETRANSLIT:;
#ARTISTTRANSLIT:;
#GENRE:;
#CREDIT:;
#BANNER:Ganymede-bn.png;
#BACKGROUND:Ganymede-bg.png;
#LYRICSPATH:;
#CDTITLE:;
#MUSIC:Ganymede.ogg;
#OFFSET:-0.025000;
#SAMPLESTART:46.854000;
#SAMPLELENGTH:20.000000;
#SELECTABLE:YES;
#DISPLAYBPM:39.000000:164.000000;
#BPMS:0.000000=82.000000
,48.000000=164.000000
,112.000000=41.000000
,120.000000=82.000000
,124.000000=164.000000
,220.000000=82.000000
,228.000000=78.000000
,230.000000=75.000000
,231.000000=72.000000
,232.000000=39.000000
;
#STOPS:
;
#BGCHANGES:;
#KEYSOUNDS:;
#ATTACKS:;

//---------------dance-single - ----------------
#NOTES:
     dance-single:
     :
     Hard:
     12:
     0.437499,0.495601,0.224476,0.360765,0.372790,382.000000,354.000000,28.000000,45.000000,0.000000,0.000000,0.437499,0.495601,0.224476,0.360765,0.372790,382.000000,354.000000,28.000000,45.000000,0.000000,0.000000:
// measure 0
0000
0000
0000
0000
,  // measure 1
0000
0000
0000
0000
,  // measure 2
0000
0000
0000
0000
,  // measure 3
0000
0000
0000
0000
,  // measure 4
0001
0000
0100
0000
0010
0000
0100
0000
1000
0000
0100
0000
0001
0000
0000
1000
,  // measure 5
0100
0000
0010
0000
0100
0000
0001
0000
0100
0000
1000
0000
0010
0000
0000
0100
,  // measure 6
0001
0000
0010
0000
1000
0000
0010
0000
0001
0000
0010
0000
0100
0000
0000
1000
,  // measure 7
0001
0000
0000
1000
0100
0000
0010
0000
0001
0000
0000
0000
0001
1000
0001
1000
,  // measure 8
0100
0000
0022
0033
2200
3300
0202
0303
,  // measure 9
2010
0001
0100
3001
0012
1000
0200
0303
,  // measure 10
0120
1000
0100
1030
2010
0001
3100
0000
,  // measure 11
2100
0000
0000
0000
0001
0000
0100
0000
3010
0000
1000
0000
0010
0100
0010
0100
,  // measure 12
1001
1001
0000
0000
,  // measure 13
0020
0000
0000
0030
,  // measure 14
0110
0110
0000
0000
,  // measure 15
2000
0000
0000
0000
0000
0000
0000
0000
0000
0000
0000
0000
3000
0000
0001
0100
,  // measure 16
0001
0101
0000
0000
,  // measure 17
0020
0000
0000
0000
0000
0000
1030
1000
,  // measure 18
1010
0000
1010
0000
0000
0101
0000
1100
,  // measure 19
0000
0000
0101
0000
0000
0000
1000
0000
1000
0000
0001
0010
0001
0000
0100
0000
,  // measure 20
0010
1000
0100
0010
0001
0100
0001
1000
,  // measure 21
0010
0100
0001
0000
0011
0000
0000
0100
,  // measure 22
1000
0010
1000
0100
0010
0001
0100
0010
,  // measure 23
1000
0001
1000
0000
1010
0000
0100
0001
,  // measure 24
0100
0000
0010
0000
1000
0100
0001
0100
,  // measure 25
0010
0100
1000
0000
1001
0000
0000
0010
,  // measure 26
0100
0000
0001
0010
0001
1000
0010
1000
,  // measure 27
0100
0000
0010
0000
0001
0000
0100
0000
0010
0000
1000
0001
1000
0000
0100
0000
,  // measure 28
0010
0001
1000
0000
0000
0000
0000
0000
0010
0000
0000
0000
0000
0000
0100
0000
0001
0000
0000
0000
0020
0000
0000
0000
0230
0000
0000
0000
2300
0000
0000
0000
,  // measure 29
3001
0000
0000
0000
0000
0000
0100
0000
0000
0000
0000
0000
0001
0000
0000
0000
0000
0000
0000
0000
0000
0000
0000
0000
0000
0000
0000
0000
0000
0000
0000
0000
0000
0000
0000
0000
0000
0000
0000
0000
0000
0000
0000
0000
0000
0000
0000
0000
1000
0000
0000
0000
0000
0000
0000
0000
0000
0000
0000
0000
0000
0000
0000
0000
0000
0000
0000
0000
0000
0000
0000
0000
0000
0000
0000
0000
0000
0000
0000
0000
0000
0000
0000
0000
0010
0000
0000
0000
0000
0000
0000
0000
0000
0000
0000
0000
0100
0000
0000
0000
0000
0000
0000
0000
0000
0000
0000
0000
0000
0000
0000
0000
0000
0000
0000
0000
0000
0000
0000
0000
0000
0000
0000
0000
0000
0000
0000
0000
0000
0000
0000
0000
0000
0000
0000
0000
0000
0000
0000
0000
0000
0000
0000
0000
0000
0000
0000
0000
0000
0000
0000
0000
0000
0000
0000
0000
0000
0000
0000
0000
0000
0000
0000
0000
0000
0000
0000
0000
0010
0000
0000
0000
0000
0000
0000
0000
1000
0000
0000
0000
0000
0000
0000
0000
0001
0000
0000
0000
0000
0000
0000
0000
,  // measure 30
0100
0000
0000
0000
0000
0000
0202
0000
0000
0000
0000
0000
0300
0000
0000
1000
0000
0000
0013
0000
0010
0000
0010
0001
,  // measure 31
0200
0320
2030
3002
,  // measure 32
0023
0000
0000
0230
0000
0000
1300
0001
1000
0001
0000
0000
,  // measure 33
0210
0320
2030
3002
,  // measure 34
2003
0000
0000
3200
0000
0000
0310
0001
0010
0001
0000
1000
,  // measure 35
0002
0000
0000
0203
0000
0000
0320
0000
0000
1030
0001
1000
,  // measure 36
0002
0000
0000
0023
0000
0000
0230
0000
0000
1300
0010
1000
,  // measure 37
0020
2030
3200
0320
,  // measure 38
0031
0100
0001
0100
0000
0000
1010
0000
0000
0001
0000
1000
,  // measure 39
0100
0000
0100
0010
0000
0010
0001
0000
0001
1000
0000
1000
,  // measure 40
0001
0000
0001
0100
0000
0100
0010
0000
0010
1000
0000
1000
,  // measure 41
0100
0000
0100
0010
0000
0010
0100
0000
0100
1000
0000
1000
,  // measure 42
0001
0000
0001
0100
0000
0000
0010
1000
0010
1000
0000
0000
,  // measure 43
0001
0000
0001
1000
0000
1000
0100
0000
0100
0010
0000
0000
,  // measure 44
0001
0000
0100
0001
0000
0000
1000
0100
1000
0100
0000
0000
,  // measure 45
1000
0001
1000
0001
0000
0000
0100
0010
0100
0010
0000
0000
,  // measure 46
1000
0000
1000
0010
0000
0010
0100
0000
0100
0001
0000
0000
,  // measure 47
0010
0000
0010
0000
0001
0000
1000
0000
0100
0000
0100
0000
,  // measure 48
1000
0001
1000
0001
0000
0000
0101
0000
0000
1100
0000
0000
,  // measure 49
0001
0000
0010
0000
0100
0000
1000
0000
0001
0000
1000
0000
,  // measure 50
0010
0100
0010
0100
0000
0000
1010
0000
0000
0011
0000
0000
,  // measure 51
1000
0100
1000
0100
0000
1000
0001
0000
0001
0100
0000
0100
,  // measure 52
0010
0000
1000
0010
0000
0000
0100
0001
0100
0001
0000
0000
,  // measure 53
0010
0001
0010
0001
0000
0000
1000
0001
1000
0001
0000
0000
,  // measure 54
1000
0000
0010
1000
0000
0001
1000
0000
0100
0010
0000
0001
,  // measure 55
0100
0000
0010
0000
0100
0000
1000
0000
0100
0000
0001
0000
0100
0000
0000
0010
,  // measure 56
1000
0000
0100
0000
0010
0000
0100
0000
0001
0000
0100
0000
1000
0000
0000
0001
,  // measure 57
0100
0000
0010
0000
1000
0000
0001
0000
0200
0000
0000
0000
0320
0000
0000
1030
,  // measure 58
0002
0100
0010
0100
0010
0100
0010
0103
;
