#TITLE:Funny shuffle;
#SUBTITLE:;
#ARTIST:Nekomata Master+;
#TITLETRANSLIT:;
#SUBTITLETRANSLIT:;
#ARTISTTRANSLIT:;
#GENRE:;
#CREDIT:;
#BANNER:[Wind Jammers] - Funny shuffle.png;
#BACKGROUND:[Wind Jammers] - Funny shuffle-bg.png;
#LYRICSPATH:;
#CDTITLE:;
#MUSIC:[Wind Jammers] - Funny shuffle.mp3;
#OFFSET:-0.333333;
#SAMPLESTART:24.333334;
#SAMPLELENGTH:20.000000;
#SELECTABLE:YES;
#DISPLAYBPM:115.000000;
#BPMS:0.000000=115.000000
;
#STOPS:
;
#BGCHANGES:;
#KEYSOUNDS:;
#ATTACKS:;

//---------------dance-single - X Scale 12----------------
#NOTES:
     dance-single:
     :
     Hard:
     12:
     0.646993,0.757428,0.819896,0.087846,0.366025,464.000000,380.000000,84.000000,9.000000,0.000000,0.000000,0.646993,0.757428,0.819896,0.087846,0.366025,464.000000,380.000000,84.000000,9.000000,0.000000,0.000000:
0000
0000
0000
0000
,
0000
0000
0000
0000
,
0000
1100
0000
0101
0000
1010
0000
0011
,
0000
0000
0000
1001
0000
0000
0000
0000
0000
0110
0000
0000
0000
0000
0000
0100
0000
0000
0010
0000
1000
0001
0000
0000
,
1000
1000
0100
0100
0010
0010
0001
0001
,
0100
0100
0010
0010
1000
1000
0001
0001
,
0011
0010
0110
0100
1100
1000
0001
0000
,
0010
0000
0010
0000
0100
0000
0100
0000
0001
1000
0001
1000
0001
0000
0000
0000
,
0001
0001
1000
1000
0100
0100
0010
0010
,
1000
1000
0010
0010
0001
0001
0100
0100
,
0101
0001
1001
1000
1010
0010
1000
0001
,
1000
0000
0000
0100
0000
0000
0010
0000
0000
0001
0000
0000
0000
0000
0010
0100
0000
0010
0100
0000
0010
0100
0000
0010
,
1000
0000
0000
1010
0000
0000
1000
0000
0000
1100
0000
0000
1000
0000
0000
1001
0000
0000
1000
0000
0001
1000
0000
0000
,
0010
0000
0000
0110
0000
0000
0100
0000
0000
0101
0000
0000
0001
0000
0000
0011
0000
0000
0001
0000
1000
0100
0000
0000
,
0101
0000
0000
1100
0000
0000
1001
0000
0000
1010
0000
0000
0011
0000
0000
0110
0000
0000
0100
0000
0100
1000
0000
0000
,
0001
0000
0000
0001
0000
0000
0001
0000
0010
0100
0000
0000
1000
0000
0000
1000
0000
0000
0100
0000
0000
0000
0000
0000
,
0100
0000
0000
0110
0000
0000
0100
0000
0000
0101
0000
0000
0100
0000
0000
1100
0000
0000
0100
0000
0010
0100
0000
0000
,
0010
0000
0000
1010
0000
0000
0010
0000
0000
0011
0000
0000
0010
0000
0000
1001
0000
0000
1000
0000
0001
0100
0000
0000
,
1001
0000
0000
0110
0000
0000
1100
0000
0000
0011
0000
0000
0101
0000
0000
1010
0000
0000
0001
0000
0100
0010
0000
0000
,
1000
0000
0000
0000
0000
0000
1000
0000
0000
0000
0000
0000
1000
0000
0000
0000
0001
0000
0100
0000
0000
0000
0000
0000
0010
0000
0000
1000
0000
0000
0010
0000
0000
1000
0000
0000
0000
0000
0000
0000
0000
0000
0000
0000
0000
0000
0000
0000
,
0001
0100
0001
0100
0000
0000
0000
0000
0001
1000
0010
0200
0000
0000
0000
0000
,
0000
0000
0000
0000
0300
0000
0000
0100
0002
0000
2003
0000
3020
0000
0130
0000
,
0110
0000
0000
1000
0001
1000
0001
0000
0000
0000
0000
0000
1010
0000
0000
0100
0010
0100
0010
0000
0000
0000
0000
0000
,
0101
0000
0001
0000
0001
0000
0100
0000
1000
0000
1000
0000
1000
0001
0000
0000
,
1100
0000
0000
1000
0010
1000
0010
0000
0000
0000
0000
0000
0011
0000
0000
0001
0100
0001
0100
0000
0000
0000
0000
0000
,
1001
0000
0010
0000
0010
0000
0100
0000
1000
0000
1000
0000
1000
0001
0000
0000
,
0011
0000
0000
0010
0001
0010
0001
0000
0000
0000
0000
0000
0101
0000
0000
0100
1000
0100
1000
0000
0000
0000
0000
0000
,
0110
0000
0010
0000
0010
0000
1000
0000
0001
0000
0001
0000
0001
0100
0000
0000
,
1010
0000
0000
1000
0100
0010
0001
0000
0000
0000
0000
0000
1100
0000
0000
0001
0010
0100
1000
0000
0000
0000
0000
0000
,
1001
0100
0100
0100
0001
0001
1000
1000
,
0010
1010
1001
0011
,
0200
0000
0000
0000
0300
0000
0001
1000
0002
0000
0000
0000
0103
0000
0000
0000
,
0001
0101
0110
1100
,
0020
0000
0000
0000
0030
0000
1000
0100
2000
0000
0000
0000
3010
0000
0000
0000
,
0010
0000
0000
0000
1000
0100
1000
0000
0001
0100
0001
0000
0100
0010
0100
0000
,
0001
0000
1000
0100
0010
0001
0010
0100
1000
0000
0010
0000
0100
0000
0000
0000
,
0001
0000
0000
0000
0100
0010
0100
0000
1000
0010
1000
0000
0001
0010
0001
0000
,
1000
0000
0000
0000
0000
0000
0001
0000
0000
0010
0000
0000
0100
0000
0000
1000
0000
0000
0100
0000
0000
0010
0000
0000
0001
0000
0000
0000
0100
0000
0010
0000
0000
0000
0100
0000
0010
0000
0000
0000
0100
0000
0010
0000
0000
0000
0100
0000
,
0001
0000
0000
0011
0000
0000
0010
0000
0000
0110
0000
0000
0100
0000
0000
1100
0000
0000
1000
0000
0001
1000
0000
0000
,
0100
0000
0000
0101
0000
0000
0001
0000
0000
1001
0000
0000
1000
0000
0000
1010
0000
0000
0010
0000
0100
0010
0000
0000
,
1001
0000
0000
0101
0000
0000
0011
0000
0000
0110
0000
0000
1100
0000
0000
1010
0000
0000
1000
0000
0100
0010
0000
0000
,
0001
0000
0000
0001
0000
0000
0001
0000
1000
0100
0000
0000
0010
0000
0000
0010
0000
0000
0010
0000
0000
0000
0000
0000
,
0101
0000
0000
0011
0000
0000
1001
0000
0000
0110
0000
0000
1010
0000
0000
1100
0000
0000
1000
0000
0100
1000
0000
0000
,
0110
0000
0000
1100
0000
0000
0011
0000
0000
1001
0000
0000
1010
0000
0000
0101
0000
0000
0001
0000
0010
0001
0000
0000
,
1010
0000
0000
0011
0000
0000
0101
0000
0000
1100
0000
0000
0110
0000
0000
1001
0000
0000
1000
0000
0100
0010
0000
0000
,
0001
0000
0000
0000
0000
0000
0001
0000
0000
0000
0000
0000
0001
0000
0000
0000
0100
0000
0010
0000
0000
0000
0000
0000
1000
0000
0000
0001
0000
0000
1000
0000
0000
0001
0000
0000
0000
0000
0000
0000
0000
0000
0000
0000
0000
0000
0000
0000
,
0100
0010
0100
0010
0000
0000
0000
0000
1000
0100
0010
0001
0000
0000
0000
0000
,
0001
0010
0100
2000
0000
0000
0000
0000
0000
0000
0000
0000
0000
0000
0000
0000
,
0000
0000
3010
0000
;

//---------------dance-single - X Scale 8----------------
#NOTES:
     dance-single:
     :
     Medium:
     8:
     0.351384,0.449723,0.292820,0.351384,0.107367,252.000000,222.000000,30.000000,36.000000,0.000000,0.000000,0.351384,0.449723,0.292820,0.351384,0.107367,252.000000,222.000000,30.000000,36.000000,0.000000,0.000000:
// measure 0
0000
0000
0000
0000
,  // measure 1
0000
0000
0000
0000
,  // measure 2
0000
0000
0000
0000
,  // measure 3
0000
0000
0000
0000
,  // measure 4
1000
0100
1000
0001
,  // measure 5
0100
0010
0001
0010
,  // measure 6
2000
0000
3002
0000
2003
0100
3100
0000
,  // measure 7
0001
0100
0010
1001
,  // measure 8
0100
0000
0010
0000
1000
0001
1000
0000
,  // measure 9
0001
0000
0100
0000
0010
1000
0010
0000
,  // measure 10
0200
0000
0320
0000
0230
0001
0301
0000
,  // measure 11
0001
0010
0100
1000
0000
0000
0000
0000
,  // measure 12
1000
0000
0000
0000
1000
0000
0000
0000
1000
0000
0000
0000
0010
0100
0010
0000
,  // measure 13
0001
0000
0000
0000
0001
0000
0000
0000
0001
0000
0000
0000
0010
0100
0010
0000
,  // measure 14
1000
0000
0000
0000
0100
0000
0000
0000
0010
0000
0000
0000
0001
1000
0001
0000
,  // measure 15
0100
0100
0110
0000
0010
0010
0110
0000
,  // measure 16
0100
0000
0000
0000
0100
0000
0000
0000
0100
0000
0000
0000
0001
1000
0001
0000
,  // measure 17
0010
0000
0000
0000
0010
0000
0000
0000
0010
0000
0000
0000
0001
1000
0001
0000
,  // measure 18
0100
0000
0000
0000
0010
0000
0000
0000
1000
0000
0000
0000
0001
0100
0001
0000
,  // measure 19
1000
0000
1000
0000
1001
0000
0000
0000
0010
0000
0000
0100
0000
0000
0000
0000
,  // measure 20
0001
0000
0000
1000
0000
0000
0000
0000
0002
0000
0000
0020
0000
0000
0000
0000
,  // measure 21
0000
0033
0101
1100
,  // measure 22
1002
0103
2001
3100
,  // measure 23
1001
0000
0010
0100
0001
0100
0010
0000
,  // measure 24
0120
1030
0210
0301
,  // measure 25
0110
0000
0001
0100
1000
0100
0001
0000
,  // measure 26
2010
3100
0012
0103
,  // measure 27
1001
0000
1000
0100
0010
0100
1000
0000
,  // measure 28
0120
1030
0210
0301
,  // measure 29
1001
0000
0010
0000
1000
0001
1000
0010
,  // measure 30
1000
2000
3200
0320
,  // measure 31
0032
0000
0000
0100
0103
0000
0101
0000
,  // measure 32
0010
0020
0230
0302
,  // measure 33
2003
0000
0000
0001
3001
0000
1010
0000
,  // measure 34
0010
0200
0302
0023
,  // measure 35
0031
0000
0100
0000
0010
1000
0010
0000
2000
0000
0000
0000
3100
0000
0000
0000
,  // measure 36
1000
0002
0203
0320
,  // measure 37
1030
0000
0010
0100
0010
0100
0010
0000
2000
0000
0000
0000
3001
0000
0000
0000
,  // measure 38
0100
0000
0000
0000
0010
0000
0000
0000
0100
0000
0000
0000
0010
1000
0010
0000
,  // measure 39
1000
0000
0000
0000
0001
0000
0000
0000
1000
0000
0000
0000
0001
0100
0001
0000
,  // measure 40
0010
0000
0000
0000
0001
0000
0000
0000
0100
0000
0000
0000
1000
0100
1000
0000
,  // measure 41
0001
0001
0011
0000
1000
1000
1010
0000
,  // measure 42
1100
0000
0000
0000
0101
0000
0000
0000
1001
0000
0000
0000
0010
0100
0010
0000
,  // measure 43
1010
0000
0000
0000
0011
0000
0000
0000
0110
0000
0000
0000
1000
0001
1000
0000
,  // measure 44
0100
0000
0000
0000
1000
0000
0000
0000
0001
0000
0000
0000
0100
0010
0100
0000
,  // measure 45
0001
0000
0001
0000
1001
0000
0000
0000
1000
0000
0000
2000
0000
0000
0000
0000
,  // measure 46
3001
0000
0000
0002
0000
0000
0000
0000
0103
0000
0000
0200
0000
0000
0000
0000
,  // measure 47
0310
0000
0000
0020
0000
0000
0000
0000
0000
0000
0000
0000
0000
0000
0000
0000
,  // measure 48
0000
0030
1001
0000
;

//---------------dance-single - X Scale 4----------------
#NOTES:
     dance-single:
     :
     Easy:
     4:
     0.237045,0.260366,0.273299,0.244017,0.000000,170.000000,142.000000,28.000000,25.000000,0.000000,0.000000,0.237045,0.260366,0.273299,0.244017,0.000000,170.000000,142.000000,28.000000,25.000000,0.000000,0.000000:
0000
0000
0000
0000
,
0000
0000
0000
0000
,
0000
0000
0000
0000
,
0000
0000
0000
0000
,
1000
0001
1000
0000
,
0010
0100
0010
0000
,
0110
1001
0110
0000
,
1000
0100
0001
0000
,
0010
1000
0010
0000
,
0100
0001
0100
0000
,
1001
0110
1001
0000
,
0010
0001
1000
0000
,
1000
1000
1000
1000
,
0001
0001
0001
0001
,
0100
0100
0100
0100
,
0010
1000
0001
1001
,
0001
0001
0001
0001
,
1000
1000
1000
1000
,
0010
0010
0010
0010
,
1000
0100
0110
0000
,
1001
0000
0220
0000
,
0000
0300
0200
0330
,
0110
0000
0110
0000
,
0110
0100
1000
1000
,
1001
0000
1001
0000
,
1001
0010
0001
0001
,
1001
0000
0110
0000
,
1001
1000
0010
0010
,
0110
0000
1001
0000
,
0110
0001
0100
0100
,
0010
2000
3002
2003
,
3020
0000
0200
0330
,
0000
0002
0203
0320
,
0230
0000
0002
0303
,
0010
2000
3200
2300
,
3002
0100
0020
0033
,
0100
0002
0023
0230
,
2300
0001
0020
3030
,
0010
0010
0010
0010
,
0100
0100
0100
0100
,
0001
0001
0001
0001
,
1000
0100
0001
0110
,
0100
0100
0100
0100
,
0010
0010
0010
0010
,
1000
1000
1000
1000
,
0001
0100
0110
0000
,
1001
0000
1001
0000
,
2002
0000
0000
3003
,
0000
0000
0110
0000
;

//---------------dance-single - X Scale 1----------------
#NOTES:
     dance-single:
     :
     Beginner:
     1:
     0.093424,0.142018,0.009761,0.009761,0.000000,67.000000,66.000000,1.000000,1.000000,0.000000,0.000000,0.093424,0.142018,0.009761,0.009761,0.000000,67.000000,66.000000,1.000000,1.000000,0.000000,0.000000:
0000
0000
0000
0000
,
0000
0000
0000
0000
,
0000
0000
0000
0000
,
0000
0000
0000
0000
,
1000
0000
0001
0000
,
0100
0000
0010
0000
,
1000
1000
1000
0000
,
0010
0000
0000
0000
,
0001
0000
0010
0000
,
0100
0000
1000
0000
,
0001
0001
0001
0000
,
0100
0000
0000
0000
,
0010
0000
0000
0000
,
1000
0000
0000
0000
,
0001
0000
0000
0000
,
0100
0000
0100
0000
,
0001
0000
0000
0000
,
0100
0000
0000
0000
,
0010
0000
0000
0000
,
1000
0000
1000
0000
,
0100
0000
0001
0000
,
0000
0000
0000
0000
,
0010
0000
0010
0000
,
0010
0000
0000
0000
,
1000
0000
1000
0000
,
1000
0000
0000
0000
,
0001
0000
0001
0000
,
0001
0000
0000
0000
,
0100
0000
0100
0000
,
0100
0000
0000
0000
,
0000
0000
0010
0000
,
0100
0000
1000
0000
,
0000
0000
0001
0000
,
0100
0000
0010
0000
,
0000
0000
1000
0000
,
0001
0000
0100
0000
,
0000
0000
0010
0000
,
1000
0000
0001
0000
,
1000
0000
0000
0000
,
0100
0000
0000
0000
,
0001
0000
0000
0000
,
0010
0000
0010
0000
,
0100
0000
0000
0000
,
0010
0000
0000
0000
,
1000
0000
0000
0000
,
0001
0000
0001
0000
,
1000
0000
0010
0000
,
0200
0000
0000
0300
,
0000
0000
1001
0000
;

//---------------dance-single - X Scale 17----------------
#NOTES:
     dance-single:
     :
     Challenge:
     17:
     0.843601,0.875776,1.073673,0.224495,0.893101,605.000000,495.000000,110.000000,23.000000,0.000000,0.000000,0.843601,0.875776,1.073673,0.224495,0.893101,605.000000,495.000000,110.000000,23.000000,0.000000,0.000000:
0000
0000
0000
0000
,
0000
0000
0000
0000
,
1100
1100
0101
0101
0011
0011
1010
1010
,
0110
0000
0000
0110
0000
0000
1001
0000
0000
1001
0000
0000
1000
0100
1000
0001
0100
0001
1000
0010
1000
0001
0010
0001
,
0100
0000
0100
0000
0010
0000
0010
0000
1000
0000
1000
0001
0000
0001
0100
0000
,
0001
0000
0001
0000
0010
0000
0010
0000
0100
0000
0100
1000
0000
1000
0010
0000
,
1010
0000
1000
0000
1001
0000
0001
0000
0011
0000
0010
0100
0000
0100
1000
0000
,
0101
0000
0000
1000
0000
0000
0110
0000
0000
1100
0000
0000
0001
0010
0100
1000
0100
0010
0001
0000
0000
0000
0000
0000
,
0010
0000
0010
0000
0100
0000
0100
0000
1000
0000
1000
0001
0000
0001
1000
0000
,
0010
0000
0010
0000
0100
0000
0100
0000
0001
0000
0001
1000
0000
1000
0001
0000
,
0011
0000
0100
0000
1100
0000
0010
0000
1001
0000
1000
0001
0000
0001
0100
0000
,
0010
0000
0000
0100
0000
0000
0101
0000
0000
1010
0000
0000
0110
0000
0100
0010
0000
0100
0010
0000
0100
0010
0000
0100
,
0010
0000
0000
0101
0000
0000
0010
0000
0000
0101
0000
0000
0010
0000
0000
0101
0000
0000
0001
0000
0001
1000
0000
1000
,
0001
0000
0000
1001
0000
0000
0001
0000
0000
1001
0000
0000
0001
0000
0000
1001
0000
0000
0010
0000
0010
0100
0000
0100
,
1000
0000
0000
1100
0000
0000
1000
0000
0000
1100
0000
0000
1000
0000
0000
1100
0000
0000
0100
0000
0100
0001
0000
0001
,
0100
0000
0000
0001
1000
0001
1000
0000
0100
0010
0000
0100
0010
0000
0000
1001
0000
0000
0001
0000
0100
0010
0000
1000
,
0100
0000
0000
0110
0000
0000
0100
0000
0000
0110
0000
0000
0100
0000
0000
0110
0000
0000
1000
0000
1000
0010
0000
0010
,
0100
0000
0000
0011
0000
0000
0100
0000
0000
0011
0000
0000
0100
0000
0000
0011
0000
0000
0001
0000
0001
0010
0000
0010
,
0001
0000
0000
1010
0000
0000
0001
0000
0000
1010
0000
0000
0001
0000
0000
1010
0000
0000
0100
0000
0100
1000
0000
1000
,
0010
0000
0010
1000
0100
0010
0001
0000
0100
0010
0000
1000
0001
0000
0100
0001
0000
0100
0000
0000
0110
0000
0000
0010
,
1000
0000
0100
1000
0000
0100
0000
0000
1100
0000
0000
1000
0010
0000
0100
0001
0000
2002
0000
0000
0000
0000
0000
0000
,
0000
0000
0000
0000
0000
0000
3000
0000
0000
0000
0000
0103
0110
0000
0000
1001
0000
0000
0110
0000
0000
1001
0000
0000
,
0110
0000
0000
0000
0000
0000
1000
0000
0010
0000
0100
0000
0010
0000
0000
0010
0000
0000
0000
0000
0000
0100
0000
0000
0110
0000
0000
0000
0000
0000
0001
0000
0100
0000
0010
0000
1000
0000
0000
1000
0000
0000
0000
0000
0000
1000
0000
0000
,
1001
0000
0000
0000
0000
0000
0001
0000
0100
0000
0001
0000
0100
0000
0000
0000
0000
0000
0110
0000
0000
0000
0000
0000
1000
0000
0000
0100
0000
0000
0010
0000
0000
0001
0000
0000
0010
0000
0000
0100
0000
0000
1000
0000
0000
0000
0000
0000
,
0011
0000
0000
0000
0000
0000
0100
0000
0010
0000
1000
0000
0001
0000
0000
0001
0000
0000
0000
0000
0000
0010
0000
0000
0011
0000
0000
0000
0000
0000
0010
0000
0100
0000
1000
0000
0100
0000
0000
0100
0000
0000
0000
0000
0000
1000
0000
0000
,
1001
0000
0000
0000
0000
0000
0010
0000
0100
0000
0010
0000
0100
0000
0000
0000
0000
0000
0011
0000
0000
0000
0000
0000
0001
0000
0000
0010
0000
0000
0100
0000
0000
1000
0000
0000
0100
0000
0000
0010
0000
0000
0001
0000
0000
0000
0000
0000
,
1100
0000
0000
0000
0000
0000
0010
0000
1000
0000
0001
0000
0100
0000
0000
0100
0000
0000
0000
0000
0000
0010
0000
0000
1100
0000
0000
0000
0000
0000
0100
0000
0010
0000
0001
0000
1000
0000
0000
1000
0000
0000
0000
0000
0000
0010
0000
0000
,
0110
0000
0000
0000
0000
0000
0100
0000
0010
0000
0100
0000
0010
0000
0000
0000
0000
0000
1001
0000
0000
0000
0000
0000
0010
0000
0000
0001
0000
0000
0010
0000
0000
0100
0000
0000
0010
0000
0000
1000
0000
0000
0010
0000
0000
0000
0000
0000
,
1100
0000
0000
0000
0000
0000
0100
0000
0010
0000
1000
0000
0001
0000
0000
0001
0000
0000
0000
0000
0000
0010
0000
0000
0101
0000
0000
0000
0000
0000
0001
0000
0010
0000
0100
0000
1000
0000
0000
1000
0000
0000
0000
0000
0000
0010
0000
0000
,
0110
0000
0100
0001
0100
0001
0100
0001
0100
0010
0100
0010
1000
0001
1000
0000
,
0010
0000
1020
0030
0120
0030
0201
0300
,
2002
0000
0000
0000
0000
0000
3000
0000
0000
0103
0001
0100
0002
0000
0000
0003
0000
0000
2002
0000
0000
0003
0000
0000
,
3100
0000
2100
3000
2010
3000
2001
3000
,
0202
0000
0000
0000
0000
0000
0300
0000
0000
0103
0010
0100
0020
0000
0000
0030
0000
0000
0220
0000
0000
0300
0000
0000
,
1030
0000
0000
0000
0000
0000
0001
0010
0001
0010
0000
0000
1000
0010
1000
0010
0000
0000
0100
0010
0100
0010
0000
0000
,
1001
0000
0000
0000
0000
0000
0000
0000
0000
0000
0000
0000
0000
0000
0000
0000
0000
0000
0000
0000
0000
0000
0000
0000
0001
0000
0000
0000
0000
0000
0100
0000
0000
0000
0000
0000
0001
0000
0000
0000
0000
0000
0100
0000
0000
0000
0000
0000
0001
0000
0000
0000
0000
0000
0000
0000
0000
0000
0000
0000
0000
0000
0000
0000
0001
0000
0000
0000
0000
0000
0000
0000
1000
0000
0000
0000
0000
0000
0000
0000
0000
0000
0000
0000
0000
0000
0000
0000
1000
0000
0000
0000
0000
0000
0000
0000
0020
0000
0000
0000
0000
0000
0000
0000
0000
0000
0000
0000
0000
0000
0000
0000
0000
0000
0000
0000
0000
0000
0000
0000
0030
0000
0000
0000
0000
0000
0000
0000
0000
0000
0000
0000
0000
0000
0000
0000
0000
0000
0000
0000
0000
0000
0000
0000
2020
0000
0000
0000
0000
0000
0000
0000
0000
0000
0000
0000
0000
0000
0000
0000
0000
0000
0000
0000
0000
0000
0000
0000
3000
0000
0000
0000
0000
0000
0000
0000
0000
0000
0000
0000
0000
0000
0000
0000
0000
0000
0000
0000
0000
0000
0000
0000
,
0130
0000
0000
0000
0000
0000
0010
1000
0010
1000
0000
0000
0001
1000
0001
1000
0000
0000
0100
1000
0100
1000
0000
0000
,
1010
0000
0000
1000
0010
0001
1000
0100
0001
1000
0100
0010
0001
0000
0100
0010
0000
0100
0010
0000
0100
0010
0000
0100
,
0010
0000
0000
1010
0000
0000
0100
0000
0000
1100
0000
0000
0010
0000
0000
1010
0000
0000
1000
0000
1000
0001
0000
0001
,
0010
0000
0000
0011
0000
0000
0100
0000
0000
0101
0000
0000
0010
0000
0000
0011
0000
0000
0001
0000
0001
1000
0000
1000
,
0100
0000
0000
1100
0000
0000
0001
0000
0000
0011
0000
0000
1000
0000
0000
0110
0000
0000
0010
0000
0010
1000
0000
0001
,
1000
0000
0000
0001
0100
0010
0100
0000
0010
1000
0000
0100
1000
0000
0000
1001
0000
0000
0001
0000
0010
0001
0000
0010
,
0011
0000
0000
0101
0000
0000
1010
0000
0000
1100
0000
0000
1001
0000
0000
0110
0000
0000
1000
0000
0001
0100
0000
0010
,
1010
0000
0000
1100
0000
0000
0110
0000
0000
0011
0000
0000
0101
0000
0000
1001
0000
0000
0010
0000
0100
0001
0000
1000
,
1100
0000
0000
0011
0000
0000
0110
0000
0000
1001
0000
0000
0101
0000
0000
1010
0000
0000
0001
0000
0010
0100
0000
1000
,
0010
0000
0010
1000
0100
1000
0001
0000
0010
0001
0000
0100
0001
0000
0010
0100
0000
1000
0000
0000
0011
0000
0000
0100
,
0001
0000
0010
0100
0000
1000
0000
0000
0101
0000
0000
0010
1000
0000
0001
0100
0000
0010
0000
0000
1100
0000
0000
0001
,
0100
0000
0010
2000
0000
0002
0000
0000
0000
0000
0000
0000
0000
0000
0000
0000
0000
0000
0000
0000
0000
0000
0000
0000
,
0000
3003
0110
0000
;
