#VERSION:0.83;
#TITLE:EMOTiON TRiPPER;
#SUBTITLE:;
#ARTIST:sky_delta;
#TITLETRANSLIT:;
#SUBTITLETRANSLIT:;
#ARTISTTRANSLIT:;
#GENRE:;
#ORIGIN:;
#CREDIT:;
#BANNER:EMOTiON TRiPPER-bn.png;
#BACKGROUND:EMOTiON TRiPPER-bg.png;
#PREVIEWVID:;
#JACKET:EMOTiON TRiPPER-jacket.png;
#CDIMAGE:;
#DISCIMAGE:;
#LYRICSPATH:;
#CDTITLE:;
#MUSIC:EMOTiON TRiPPER.ogg;
#OFFSET:0.000000;
#SAMPLESTART:12.000000;
#SAMPLELENGTH:20.000000;
#SELECTABLE:YES;
#DISPLAYBPM:170.000000;
#BPMS:0.000=170.000;
#STOPS:;
#DELAYS:;
#WARPS:;
#TIMESIGNATURES:0.000=4=4;
#TICKCOUNTS:0.000=4;
#COMBOS:0.000=1;
#SPEEDS:0.000=1.000=0.000=0;
#SCROLLS:0.000=1.000;
#FAKES:;
#LABELS:0.000=Song Start;
#BGCHANGES:;
#KEYSOUNDS:;
#ATTACKS:
;

//---------------dance-single - ----------------
#NOTEDATA:;
#CHARTNAME:;
#STEPSTYPE:dance-single;
#DESCRIPTION:;
#CHARTSTYLE:;
#DIFFICULTY:Hard;
#METER:15;
#RADARVALUES:0.738791,0.825301,0.509511,0.577446,0.518003,609.000000,549.000000,60.000000,68.000000,0.000000,0.000000,0.000000,0.000000,0.000000,0.738791,0.825301,0.509511,0.577446,0.518003,609.000000,549.000000,60.000000,68.000000,0.000000,0.000000,0.000000,0.000000,0.000000;
#CREDIT:;
#DISPLAYBPM:170.000000;
#NOTES:
0000
0000
0000
0000
,
0000
0000
0000
0000
,
0000
0000
0000
0000
,
0000
0000
0000
0000
,
0000
0000
0000
0000
,
1000
0100
0001
0100
2000
0000
3001
0100
,
1000
0100
0002
0000
0103
0010
0100
0010
,
0100
0000
0000
0000
0001
0000
1000
0100
0000
0100
1000
0000
0000
0000
0010
0000
,
1000
0100
1000
0001
0100
0010
0100
0001
2000
0000
3002
0000
0203
0000
0320
0000
,
1030
0000
0001
0100
0010
0000
1000
0010
0100
0000
0000
0101
0000
0000
2100
0000
,
0000
0000
0010
0000
3010
1000
0010
0000
0200
0000
0001
0000
0301
0000
0000
0000
,
0001
0000
0100
0001
1000
0000
0100
1000
0010
0000
0000
1010
0000
0000
0012
0000
,
0000
0000
1000
0000
1003
0001
1000
0000
0020
0000
0100
0000
0130
0000
0000
0000
,
0001
1000
0100
1000
0001
0000
0100
0000
0020
0000
0000
0000
1030
0010
0100
0010
,
1000
0000
0001
0000
0200
0000
0000
0000
0301
1000
0001
1000
0001
0000
0100
0000
,
0110
1001
1100
0012
,
1000
1000
1003
0020
0130
0110
1001
0000
,
1000
0010
1000
0010
0200
0000
0001
0000
0301
1000
0002
0000
0103
0000
0000
0000
,
0010
0000
1010
0010
1000
0100
0010
0001
,
0100
0000
0000
0000
0101
0000
0001
1000
0000
1000
0100
0000
1000
0000
0010
0000
,
0100
0000
0101
0001
1000
0100
1000
0001
,
0100
0010
1010
1100
1000
0001
0011
1001
,
0010
0000
0110
0100
0001
1000
0100
0010
,
0001
0000
0000
0000
1010
0000
1000
0001
0000
0001
0100
0000
0010
0000
1000
0000
,
0001
1000
0010
1001
1000
0100
0010
0011
,
0001
1000
0001
1000
0100
1000
0100
1000
0010
0100
0010
0100
0010
0000
0000
0000
,
1000
0000
1100
1000
0001
0100
0001
1000
,
0010
0000
0000
0000
0110
0000
0100
0001
0000
1000
0100
0000
1000
0000
0010
0000
,
1000
0000
0101
0010
0100
0001
0010
0100
,
1000
0100
0110
0011
0010
0001
0101
1010
,
0100
0000
1100
0010
0100
0001
0100
0010
,
1000
0000
0000
0000
1001
0000
0010
0100
0000
0010
1000
0000
0001
0000
0000
0000
,
1000
0100
1000
0100
0010
0001
0010
0001
0100
0010
0100
0010
1000
0001
1000
0001
,
2000
0000
3002
0000
0103
0010
0100
0010
,
1000
0000
0000
1000
0010
0000
0000
0010
0100
0000
0000
0100
0001
0000
0000
0000
,
1001
0000
0000
0000
0101
0000
0000
0000
0011
0000
0000
0000
0000
0000
1000
0100
,
1000
0000
0000
1000
0001
0000
0000
0001
0100
0000
0000
0100
0010
0000
0000
0000
,
0110
0000
0000
0000
1010
0000
0000
0000
1100
0000
0000
0000
0000
0000
0010
0001
,
0010
0000
0001
0100
0000
1000
0100
0000
0010
0000
0100
0000
0001
0000
1000
0000
,
0100
0000
0100
0000
0010
0000
0010
0000
1000
0001
1000
0001
0010
0000
0100
0000
,
0010
0001
1000
0001
0010
0000
0001
1000
0100
1000
0001
0000
0010
0000
0000
0000
,
1000
0000
0001
0000
0100
0010
0100
0010
,
0100
0000
0001
1000
0100
0000
0010
0001
0100
0000
0000
0110
0000
0000
2001
0000
,
0000
0000
0100
0000
3100
1000
0100
0000
0020
0000
0001
0000
0031
0000
0000
0000
,
0010
0000
1000
0100
0010
0000
1000
0001
0100
0000
0000
0101
0000
0000
1200
0000
,
0000
0000
1000
0000
1300
0001
1000
0000
0020
0000
0100
0000
0130
0000
0000
0000
,
0001
0010
1000
0010
0001
0000
0100
0000
0200
0000
0000
0000
0301
0100
1000
0100
,
0001
0000
0010
0000
0020
0000
0000
0000
0031
1000
0010
1000
0001
0000
0100
0000
,
0011
1010
1100
0201
,
0001
0001
0301
2000
3010
1000
0100
0000
,
1001
0000
0000
1000
0100
0000
1000
0010
0100
0000
0001
0010
0000
0001
0100
0000
,
0002
0000
0023
0031
2000
3010
0200
0300
,
0110
0000
0000
0010
1000
0000
0010
0100
0001
0000
1000
0001
0000
0001
0100
0000
,
1020
0000
0000
0000
0130
0000
0010
1000
0002
0000
0000
0000
0103
0000
0001
0010
,
0001
0000
0000
0011
0000
0000
1000
0000
0010
0000
0100
0000
0001
0000
1000
0000
,
0001
0100
0010
0100
0001
0100
0010
0100
0001
0100
0010
0100
0001
0000
0000
0000
,
0020
0000
0000
0000
0000
0000
0000
0002
,
0000
0000
0000
0030
,
0200
0000
0000
0000
0000
0000
0003
2000
,
0000
0000
0000
3300
,
0010
0001
1000
0010
0100
0000
0001
0000
2000
0000
0000
0000
3010
1000
0100
1000
,
0001
0000
0100
0000
0020
0000
0000
0000
1030
0010
0100
0001
0010
0000
0100
0000
,
0010
0001
1000
2002
,
3000
0000
0000
0010
0010
0100
0103
0001
,
0101
0000
0000
0010
0100
0000
0001
1000
0100
0000
1000
0010
0000
0100
0001
0000
,
2000
0000
3010
0100
0020
0000
0130
0001
0200
0000
0301
1000
0002
0000
0003
0000
,
1100
0000
0000
0001
1000
0000
0010
0100
0001
0000
0010
0001
0000
1000
0100
0000
,
2010
0000
0000
0000
3100
0000
0001
1000
0002
0000
0000
0000
0013
0000
0100
1000
,
0001
0000
0000
0011
0000
0000
0110
0000
1000
0000
0001
0000
0100
0000
0010
0000
,
1000
0100
0010
0001
1000
0010
0100
0001
,
0100
0000
0000
0100
0010
0000
0000
0010
1000
0000
0000
1100
0000
0000
0102
0000
,
0000
2003
3020
0230
0302
1000
1003
0000
,
0001
0000
0000
0001
1000
0000
0000
1000
0010
0000
0000
1010
0000
0000
0012
0000
,
0000
0203
0320
2030
3002
0100
0103
0000
,
0010
0000
0000
0010
1000
0000
0000
1000
0001
0000
0000
1001
0000
0000
0120
0000
,
0000
0230
0320
2030
3002
0010
0013
0000
,
0002
0000
0000
0000
2003
0000
0000
0000
3020
0000
0000
0230
0000
0000
0320
0000
,
0000
1030
0002
0203
0000
0000
0310
0000
;

//---------------dance-single - ----------------
#NOTEDATA:;
#CHARTNAME:;
#STEPSTYPE:dance-single;
#DESCRIPTION:;
#CHARTSTYLE:;
#DIFFICULTY:Medium;
#METER:11;
#RADARVALUES:0.476757,0.561205,0.254755,0.866168,0.135870,393.000000,363.000000,30.000000,102.000000,0.000000,0.000000,0.000000,0.000000,0.000000,0.476757,0.561205,0.254755,0.866168,0.135870,393.000000,363.000000,30.000000,102.000000,0.000000,0.000000,0.000000,0.000000,0.000000;
#CREDIT:;
#DISPLAYBPM:170.000000;
#NOTES:
0000
0000
0000
0000
,
0000
0000
0000
0000
,
0000
0000
0000
0000
,
0000
0000
0000
0000
,
0000
0000
0000
0000
,
1000
0001
1000
0001
0200
0000
0310
0100
,
0010
0100
0002
0000
2003
0000
3020
0000
,
0130
0000
0000
0000
0020
0000
0000
2030
0000
0000
3001
0000
0000
0000
1002
0000
,
0000
0100
0203
0000
0301
1000
0001
1000
,
1010
0000
0000
0000
0011
0000
0000
0000
0020
0000
0000
0032
0000
0000
2003
0000
,
0000
3001
1000
0010
0200
0000
0300
0000
,
0101
0000
0000
0000
1100
0000
0000
0000
2000
0000
0000
3002
0000
0000
0203
0000
,
0000
0301
1000
0100
0020
0000
0030
0000
,
0001
0100
1000
0100
0002
0000
1003
0010
,
0001
0010
2000
0000
3010
0100
0010
0100
,
0002
2003
3010
0220
,
0300
0000
0000
0230
0000
0001
0301
0000
,
0020
0000
0000
0000
1000
0000
0000
1000
0000
0000
0100
0000
0130
0000
0000
0000
,
1001
0000
1000
0100
0010
0001
0000
0100
,
0000
0000
0000
0000
0002
0000
0000
0023
0000
0000
0230
0000
0000
0000
2300
0000
,
0000
0000
3010
1000
0001
0100
0000
0110
,
0000
0010
1000
0100
0000
0010
0001
0100
,
0001
0000
0010
0001
1000
0100
0000
0100
,
0000
0000
0000
0000
2000
0000
0000
3020
0000
0000
0230
0000
0000
0000
0302
0000
,
1000
1000
1003
0010
0100
0001
0010
0001
,
0100
0000
0000
0000
0100
0000
0000
0000
0100
0000
0001
1000
0001
0000
0000
0000
,
0011
0000
0001
0010
0100
1000
0000
1100
,
0000
0000
0000
0000
1000
0000
0000
0010
0000
0000
0100
0000
0010
0000
1000
0000
,
0001
0000
1000
0010
1000
0001
0000
0101
,
0000
0001
0010
0100
0000
0010
0100
1000
,
0010
0000
1000
0001
0100
0010
0000
1010
,
0000
0000
0000
0000
0002
0000
0000
1003
0000
0000
0100
0000
1000
0000
0001
0000
,
1000
0100
0001
0100
1000
0010
0001
0010
,
2000
0000
0000
0000
3010
0100
0010
0100
,
0020
0230
0302
0023
,
0230
0000
0000
0000
1300
0000
0000
0000
2100
0000
0000
0000
0000
0000
3001
1000
,
0002
2003
3020
0230
,
0302
0000
0000
0000
0013
0000
0000
0000
0021
0000
0000
0000
0000
0000
0031
0100
,
0001
0000
0000
1000
0000
0000
0200
0000
0000
0000
0310
0000
0001
0000
2000
0000
,
0010
0000
0100
0000
3001
0010
0100
1000
,
0020
1000
1000
2030
0001
0001
3002
0000
,
0200
0000
0303
0000
0010
0100
0010
0100
,
0110
0000
0000
0000
1001
0000
0000
0000
2000
0000
0000
3200
0000
0000
0320
0000
,
0000
0031
1000
0100
0002
0000
0003
0000
,
1010
0000
0000
0000
0101
0000
0000
0000
0002
0000
0000
0203
0000
0000
2300
0000
,
0000
3100
0001
1000
0020
0000
0030
0000
,
1000
0100
0001
0100
2000
0000
3001
0010
,
1000
0010
0002
0000
0103
0010
0100
0010
,
0200
0310
1010
0022
,
0030
0000
0000
2003
0000
0010
3020
0000
,
0200
0000
0000
0000
0330
0000
0010
1000
0010
0000
0000
1000
0000
0000
0001
0000
,
0101
1100
1001
0210
,
0002
0000
0000
0000
0303
0000
1000
0010
2000
0000
0000
3001
0000
0000
0100
0000
,
0020
0000
0000
0000
0030
0000
1000
0002
2000
0000
0000
0000
3003
0000
0010
0100
,
0020
0000
0000
1000
0000
0000
0230
0000
0000
0000
0301
0000
0100
0000
0010
0000
,
1000
0100
0010
0001
,
2002
0000
0000
0000
,
3003
0000
0000
0000
,
0220
0000
0000
0000
,
0330
0000
0000
0000
,
1000
0010
0100
0001
2000
0000
3010
1000
,
0100
0010
0002
0000
0103
0010
1000
0001
,
0011
0101
1100
2020
,
3000
0000
0000
0230
0000
0001
0302
0000
,
0200
0000
0000
0000
0303
0000
0010
0001
0020
0000
0000
1000
0000
0000
0001
0000
,
0032
2003
3020
0230
,
0020
0000
0000
0000
0330
0000
1000
0100
2000
0000
0000
3002
0000
0000
1003
0000
,
0200
0000
0000
0000
0300
0000
1000
0002
2000
0000
0000
0000
3003
0000
0010
0100
,
0020
0000
0000
1000
0000
0000
0230
0000
0000
0000
0301
0000
0100
0000
0010
0000
,
1000
0100
0010
0001
,
0100
0000
0000
0000
0100
0000
0000
0000
0001
0000
0000
1000
0000
0000
0001
0000
,
0000
1000
0100
0010
0001
0000
0000
0000
,
0010
0000
0000
0000
0010
0000
0000
0000
1000
0000
0000
0001
0000
0000
1000
0000
,
0000
0001
0010
0100
1000
0000
0000
0000
,
0001
0000
0000
0000
0001
0000
0000
0000
0100
0000
0000
0010
0000
0000
0100
0000
,
0000
0010
1000
0001
0100
0000
0000
0000
,
1000
0000
0000
0000
1000
0000
0000
0000
0010
0000
0000
0100
0000
0000
0020
0000
,
0000
1030
0001
0200
0000
0000
0310
0000
;

//---------------dance-single - ----------------
#NOTEDATA:;
#CHARTNAME:;
#STEPSTYPE:dance-single;
#DESCRIPTION:;
#CHARTSTYLE:;
#DIFFICULTY:Easy;
#METER:7;
#RADARVALUES:0.351805,0.429157,0.305707,0.297215,0.016984,290.000000,254.000000,36.000000,35.000000,0.000000,0.000000,0.000000,0.000000,0.000000,0.351805,0.429157,0.305707,0.297215,0.016984,290.000000,254.000000,36.000000,35.000000,0.000000,0.000000,0.000000,0.000000,0.000000;
#CREDIT:;
#DISPLAYBPM:170.000000;
#NOTES:
0000
0000
0000
0000
,
0000
0000
0000
0000
,
0000
0000
0000
0000
,
0000
0000
0000
0000
,
0000
0000
0000
0000
,
1000
0100
1000
0001
,
0010
0001
0100
0010
,
1000
0000
0100
0000
0001
0000
0000
2002
,
0000
0000
3003
0000
0100
0010
0100
0000
,
0010
0100
0001
1000
,
0100
0000
1000
0001
1000
0000
0000
0000
,
0001
0010
0100
1000
,
0010
0000
0100
0001
0100
0000
0000
0000
,
0001
0100
0020
1030
,
0100
0020
0031
1000
,
2000
3020
0230
0302
,
0000
0000
1000
0103
,
0010
0010
0010
1001
,
0000
0000
1000
0010
0000
0100
0000
0001
,
0000
0000
0000
0000
0100
0000
0000
0010
0000
0000
1000
0000
0000
0000
0001
0000
,
0000
0000
1000
0001
0000
0100
0000
0010
,
0000
1100
0000
0101
,
0000
0000
0010
1000
0000
0001
0000
0100
,
0000
0000
0000
0000
0001
0000
0000
0010
0000
0000
0100
0000
0000
0000
1000
0000
,
0010
0100
0001
1000
,
0100
0010
0001
1000
,
0110
0000
0010
0100
0000
0001
0000
1000
,
0000
0000
0000
0000
0001
0000
0000
0100
0000
0000
0010
0000
0000
0000
1000
0000
,
0000
0000
0001
0010
0000
1000
0000
0100
,
0000
1010
0000
0011
,
0000
0000
0010
1000
0000
0100
0000
0001
,
0000
0000
0000
0000
1000
0000
0000
0001
0000
0000
0100
0000
0000
0000
0010
0000
,
1000
0100
0010
0001
,
0220
0330
1000
0001
,
1000
0100
0010
0001
,
1001
0110
1001
0000
,
0001
0010
0100
1000
,
1100
0011
1100
0000
,
0001
1000
0010
0100
,
0001
0010
0100
1000
,
1010
0000
0000
0101
0000
0000
0022
0000
,
0000
0000
0033
0000
1000
0001
1000
0000
,
0010
0101
1000
0100
,
1000
0000
0001
0100
0010
0000
0000
0000
,
0001
1010
0100
0010
,
1000
0000
0100
1000
0001
0000
0000
0000
,
0001
0010
0200
1300
,
0010
0200
0301
1000
,
0020
2030
3002
0203
,
0000
0000
1000
0301
,
0220
0330
0100
0010
,
1100
0101
1010
0011
,
2000
0000
0001
0100
,
0002
3000
0020
0033
,
0001
1000
0010
0100
,
0001
0010
0100
1000
,
1001
0000
0000
0000
,
0000
0000
0000
0000
,
0110
0000
0000
0000
,
0000
0000
0000
0000
,
1000
0001
0020
0031
,
1000
0020
0130
0100
,
0002
0203
0320
2030
,
0000
0000
0010
3001
,
0200
0300
0100
0001
,
0011
1100
0101
1010
,
0020
0030
0010
1000
,
0002
0000
2000
3003
,
0010
1000
0100
0010
,
0001
0100
0001
1000
,
0010
1100
0010
0101
,
0010
0000
1000
0001
0100
0000
0000
0000
,
0100
0011
0100
1010
,
0100
0000
0001
1000
0010
0000
0000
0000
,
1000
1001
0010
0110
,
0100
0000
0001
0100
1000
0000
0000
0000
,
1000
0000
0001
0000
1000
0000
0000
0020
,
0000
0000
0100
0230
0000
0000
0310
0000
;

//---------------dance-single - ----------------
#NOTEDATA:;
#CHARTNAME:;
#STEPSTYPE:dance-single;
#DESCRIPTION:;
#CHARTSTYLE:;
#DIFFICULTY:Beginner;
#METER:2;
#RADARVALUES:0.166198,0.231084,0.050951,0.000000,0.000000,137.000000,131.000000,6.000000,0.000000,0.000000,0.000000,0.000000,0.000000,0.000000,0.166198,0.231084,0.050951,0.000000,0.000000,137.000000,131.000000,6.000000,0.000000,0.000000,0.000000,0.000000,0.000000,0.000000;
#CREDIT:;
#DISPLAYBPM:170.000000;
#NOTES:
// measure 0
0000
0000
0000
0000
,  // measure 1
0000
0000
0000
0000
,  // measure 2
0000
0000
0000
0000
,  // measure 3
0000
0000
0000
0000
,  // measure 4
0000
0000
0000
0000
,  // measure 5
1000
0000
1000
0000
,  // measure 6
0001
0000
0001
0000
,  // measure 7
0100
0000
0000
0000
,  // measure 8
1001
0000
0000
0000
,  // measure 9
0010
0010
0010
0000
,  // measure 10
0100
0000
0001
0000
,  // measure 11
1000
1000
1000
0000
,  // measure 12
0001
0000
0100
0000
,  // measure 13
0010
0000
0010
0000
,  // measure 14
0100
0000
0100
0000
,  // measure 15
0001
0001
0001
0001
,  // measure 16
0000
0000
0000
0000
,  // measure 17
0110
0000
0000
0000
,  // measure 18
0000
1000
0000
0000
,  // measure 19
0000
0001
0000
0000
,  // measure 20
0000
0100
0000
0000
,  // measure 21
0000
0001
0000
1000
,  // measure 22
0000
0010
0000
0000
,  // measure 23
0000
0100
0000
0000
,  // measure 24
0010
0010
0000
0000
,  // measure 25
0100
0000
0000
0000
,  // measure 26
0000
0001
0000
0000
,  // measure 27
0000
1000
0000
0000
,  // measure 28
0000
0010
0000
0000
,  // measure 29
0000
1000
0000
0001
,  // measure 30
0000
0100
0000
0000
,  // measure 31
0000
0010
0000
0000
,  // measure 32
0100
0100
0000
0000
,  // measure 33
0010
0000
1000
0000
,  // measure 34
0001
0000
1000
0000
,  // measure 35
0100
0100
0100
0000
,  // measure 36
1000
0000
0001
0000
,  // measure 37
0100
0100
0100
0000
,  // measure 38
0010
0000
0100
0000
,  // measure 39
0001
0000
1000
0000
,  // measure 40
0001
0000
0001
0000
,  // measure 41
1001
0000
0000
0000
,  // measure 42
0100
0100
0100
0000
,  // measure 43
1000
0000
0010
0000
,  // measure 44
0001
0001
0001
0000
,  // measure 45
1000
0000
0010
0000
,  // measure 46
0100
0000
0001
0000
,  // measure 47
1000
0000
0010
0000
,  // measure 48
1000
1000
1000
1000
,  // measure 49
0000
0000
0000
0000
,  // measure 50
0010
0000
1000
0000
,  // measure 51
0001
0000
0100
0000
,  // measure 52
0010
0000
0100
0000
,  // measure 53
0001
0000
1000
0000
,  // measure 54
0100
0000
1000
0000
,  // measure 55
0001
0000
0000
0000
,  // measure 56
0110
0000
0000
0000
,  // measure 57
0000
0000
0000
0000
,  // measure 58
0000
0000
0000
0000
,  // measure 59
0000
0000
0000
0000
,  // measure 60
1000
0000
0100
0000
,  // measure 61
0010
0000
0001
0000
,  // measure 62
0000
0000
0000
1001
,  // measure 63
0000
0000
0000
0000
,  // measure 64
0001
0000
1000
0000
,  // measure 65
0010
0000
0100
0000
,  // measure 66
0001
0000
0010
0000
,  // measure 67
0100
0000
1000
0000
,  // measure 68
0010
0000
0100
0000
,  // measure 69
0001
0000
0000
0000
,  // measure 70
1000
1000
1000
0000
,  // measure 71
0010
0010
0010
0000
,  // measure 72
0100
0100
0100
0000
,  // measure 73
0001
0001
0001
0000
,  // measure 74
1000
1000
1000
0000
,  // measure 75
0001
0001
0001
0000
,  // measure 76
0100
0000
0010
0000
,  // measure 77
0110
0000
0000
0010
;
