#TITLE:ECHIDNA;
#SUBTITLE:;
#ARTIST:HuEeR;
#TITLETRANSLIT:;
#SUBTITLETRANSLIT:;
#ARTISTTRANSLIT:;
#GENRE:;
#CREDIT:;
#BANNER:ECHIDNA-bn.png;
#BACKGROUND:ECHIDNA-bg.png;
#LYRICSPATH:;
#CDTITLE:;
#MUSIC:ECHIDNA.mp3;
#OFFSET:-0.333333;
#SAMPLESTART:28.278999;
#SAMPLELENGTH:20.000000;
#SELECTABLE:YES;
#DISPLAYBPM:146.000000;
#BPMS:0.000000=146.000000
;
#STOPS:
;
#BGCHANGES:;
#KEYSOUNDS:;
#ATTACKS:;

//---------------dance-single - ----------------
#NOTES:
     dance-single:
     :
     Hard:
     12:
     0.502588,0.612793,0.197278,0.402775,0.460314,428.000000,404.000000,24.000000,49.000000,0.000000,0.000000,0.502588,0.612793,0.197278,0.402775,0.460314,428.000000,404.000000,24.000000,49.000000,0.000000,0.000000:
// measure 0
0000
0000
0000
0000
,  // measure 1
0000
0000
0000
0000
,  // measure 2
0000
0000
0000
0000
,  // measure 3
0000
0000
0000
0000
,  // measure 4
0000
0000
0000
0000
,  // measure 5
1000
0000
0000
1000
0000
0000
1000
0000
0001
0000
0000
0000
0000
0000
0000
0000
,  // measure 6
1000
0000
0000
1000
0000
0100
0000
1000
0001
0000
0000
0000
0000
0000
0000
0000
,  // measure 7
0001
0000
0000
0001
0000
0000
0001
0000
1000
0000
0000
0000
0000
0000
0000
0000
,  // measure 8
0001
0000
0000
0001
0000
0100
0000
0001
1000
0000
0010
0000
1000
0000
0100
0000
,  // measure 9
1000
0000
0000
1000
0001
0000
0000
0001
0100
0000
0000
0010
0100
0000
0010
0000
,  // measure 10
1000
0000
1000
0100
0010
0000
0010
0001
,  // measure 11
0100
0000
0100
0010
1000
0000
0001
0010
,  // measure 12
1000
0000
0100
0010
0100
0000
1000
0001
,  // measure 13
0010
0001
0100
0001
0010
0100
1000
0000
,  // measure 14
0100
0010
0100
1000
0001
0010
1000
0000
,  // measure 15
0001
0100
0001
0100
0010
1000
0010
1000
,  // measure 16
0100
0010
0100
1000
0010
1000
0001
0000
,  // measure 17
0020
0000
0000
0000
0000
0000
0000
0000
0030
0000
1010
0000
0000
1001
0000
0000
,  // measure 18
0101
0000
0000
1100
0000
0000
0110
0000
0000
0022
0000
0000
0000
0033
0000
0000
,  // measure 19
0001
0100
1000
0100
0001
0100
1000
0100
,  // measure 20
0001
0010
1000
0010
0001
0010
1000
0010
,  // measure 21
0200
0000
0000
0000
0000
0000
0000
0000
0300
0000
0101
0000
0000
0110
0000
0000
,  // measure 22
1010
0000
0000
1100
0000
0000
1001
0000
0000
0022
0000
0000
0000
0033
0000
0000
,  // measure 23
1000
0010
0001
0010
1000
0010
0001
0010
,  // measure 24
1000
0100
0001
0100
1000
0100
0001
0100
,  // measure 25
1000
0000
0001
0100
0000
0100
0000
0000
0001
0000
1000
0010
0000
0010
0000
0000
,  // measure 26
0100
0000
0010
1000
0000
1000
0000
0000
0100
0000
0010
0001
0000
0001
0000
0000
,  // measure 27
0100
0000
0001
1000
0000
1000
0000
0000
0001
0000
0100
0010
0000
0010
0000
0000
,  // measure 28
0010
0000
1000
0100
0000
0100
0000
0000
0010
0000
1000
0001
0000
0001
0000
0000
,  // measure 29
0010
0000
0001
0100
0000
0001
0000
0010
0100
0000
1000
0001
0000
1000
0000
0100
,  // measure 30
1000
0000
0010
0100
0000
0010
0000
1000
0001
0000
0100
0010
0000
0100
0000
0001
,  // measure 31
0010
0000
0001
1000
0000
0001
0000
0010
0100
0000
1000
0010
0000
1000
0000
0100
,  // measure 32
1000
0100
0010
0001
0010
0100
1000
0000
,  // measure 33
1001
0000
0000
1000
0100
0000
0000
0100
1000
0000
0010
0000
0010
0000
0000
0000
,  // measure 34
0101
0000
0000
0001
0010
0000
0000
0010
0001
0000
1000
0000
1000
0000
0000
0000
,  // measure 35
1100
0000
0000
0010
0001
0000
0000
0001
0010
0000
0100
0000
0100
0000
0000
0000
,  // measure 36
1010
0000
0000
1000
0010
0000
0000
0010
1000
0000
0001
0000
0001
0000
0000
0000
,  // measure 37
0011
0000
0000
0100
0010
0000
0000
0010
0100
0000
0001
0000
1000
0000
0000
0000
,  // measure 38
0110
0000
0000
0001
1000
0000
0000
1000
0001
0000
0100
0000
0010
0000
0000
0000
,  // measure 39
1000
0100
0010
0001
1000
0100
0010
0001
,  // measure 40
1000
0100
0010
0001
0010
0100
1000
0000
,  // measure 41
2002
0000
0000
0000
,  // measure 42
0000
3000
2000
0003
,  // measure 43
3020
0000
0000
0000
0230
0000
0302
0000
0023
0000
0230
0000
,  // measure 44
2300
0000
3002
0000
1003
0020
2000
0000
0000
3030
0100
0002
,  // measure 45
0200
0000
0003
0000
0320
0000
2030
0000
3002
0000
0203
0000
,  // measure 46
0302
0000
0023
0000
0130
2000
0200
0000
0000
3000
0000
0000
,  // measure 47
2300
0000
0000
0000
3020
0000
2030
0000
3002
0000
0203
0000
,  // measure 48
0302
0000
0023
0000
0031
2000
0002
0000
0000
3003
0010
0200
,  // measure 49
0020
0000
0300
0000
2030
0000
3200
0000
0320
0000
0031
1000
,  // measure 50
0002
1000
0010
0103
,  // measure 51
0010
1000
0001
0100
,  // measure 52
0001
0010
0100
1000
,  // measure 53
0100
0100
0010
0010
,  // measure 54
1000
1000
0001
0001
,  // measure 55
0010
0000
0001
1000
0000
1000
0000
1000
0001
0000
0100
0010
0000
0100
0000
0010
,  // measure 56
1000
0000
0100
0010
0000
0010
0000
0010
0001
0000
0100
0001
0000
0001
0000
1000
,  // measure 57
0001
0010
0001
0010
0100
1000
0100
1000
,  // measure 58
0010
0001
0100
1000
0001
0100
0010
0000
,  // measure 59
0010
0000
0000
0010
0000
0000
0010
0000
0100
0000
0000
0100
0000
0000
0100
0000
,  // measure 60
0001
0000
0000
1000
0000
0000
0001
0000
2000
0000
0000
0000
3100
0000
0100
0000
,  // measure 61
0001
0000
0000
0001
0000
0000
0001
0000
1000
0000
0000
1000
0000
0000
1000
0000
,  // measure 62
0010
0000
0000
0100
0000
0000
0010
0000
0200
0000
0001
0000
0301
0000
0000
0000
,  // measure 63
1000
0000
0000
0001
0000
0000
0100
0000
0010
0000
0000
1000
0000
0000
0100
0000
,  // measure 64
1000
0000
0000
0010
0000
0000
0001
0000
0200
0000
0000
0000
0310
0000
0010
0000
,  // measure 65
1010
0000
0000
0000
0011
0000
0000
0000
0100
0000
0000
0010
0000
0000
0100
0000
,  // measure 66
0002
0000
0100
0000
1003
0000
0001
1000
,  // measure 67
1100
0000
0000
0000
0101
0000
0000
0000
1000
0000
0000
0001
0000
0000
1000
0000
,  // measure 68
0001
0100
0001
0010
0100
1000
0010
0000
,  // measure 69
0220
0000
0000
0000
,  // measure 70
0000
0000
0000
0000
,  // measure 71
0330
0000
0000
0000
;
