#VERSION:0.83;
#TITLE:Drop It;
#SUBTITLE:;
#ARTIST:Dazsta;
#TITLETRANSLIT:;
#SUBTITLETRANSLIT:;
#ARTISTTRANSLIT:;
#GENRE:;
#ORIGIN:;
#CREDIT:;
#BANNER:Drop It-bn.png;
#BACKGROUND:Drop It-bg.png;
#PREVIEWVID:;
#JACKET:Drop It-jacket.png;
#CDIMAGE:;
#DISCIMAGE:;
#LYRICSPATH:;
#CDTITLE:;
#MUSIC:Drop It.ogg;
#OFFSET:0.774000;
#SAMPLESTART:13.161000;
#SAMPLELENGTH:20.000000;
#SELECTABLE:YES;
#DISPLAYBPM:155.000000;
#BPMS:0.000=155.000;
#STOPS:;
#DELAYS:;
#WARPS:;
#TIMESIGNATURES:0.000=4=4;
#TICKCOUNTS:0.000=4;
#COMBOS:0.000=1;
#SPEEDS:0.000=1.000=0.000=0;
#SCROLLS:0.000=1.000;
#FAKES:;
#LABELS:0.000=Song Start;
#BGCHANGES:;
#KEYSOUNDS:;
#ATTACKS:
;

//---------------dance-single - ----------------
#NOTEDATA:;
#CHARTNAME:;
#STEPSTYPE:dance-single;
#DESCRIPTION:;
#CHARTSTYLE:;
#DIFFICULTY:Hard;
#METER:16;
#RADARVALUES:0.897332,0.939215,0.409096,0.536938,1.073876,737.000000,689.000000,48.000000,63.000000,0.000000,0.000000,0.000000,0.000000,0.000000,0.897332,0.939215,0.409096,0.536938,1.073876,737.000000,689.000000,48.000000,63.000000,0.000000,0.000000,0.000000,0.000000,0.000000;
#CREDIT:;
#DISPLAYBPM:155.000000;
#NOTES:
0000
0000
0000
0000
,
0000
0000
0000
0000
,
0000
0000
0000
0000
,
0000
0000
0000
0000
,
0000
0000
0000
0000
,
2000
0100
0000
0000
3002
0100
0000
0000
2003
0010
0000
0000
3002
0010
0000
0000
,
0203
0010
0000
0000
0301
0000
0000
0000
0020
0100
0000
0000
0031
0000
0000
0000
,
2000
0010
0000
0000
3002
0010
0000
0000
2003
0100
0000
0000
3002
0100
0000
0000
,
0023
0001
0000
0000
0130
0000
0000
0000
0200
1000
0000
0000
0310
0000
0000
0000
,
1000
0100
1000
0100
1000
0000
0001
0100
0001
0100
0001
0000
0100
0010
0100
0010
,
0100
0000
0000
0000
0001
0010
0001
0010
0001
0010
0001
0010
0001
0000
0000
0000
,
1000
0010
1000
0010
1000
0000
0001
0010
0001
0010
0001
0000
0100
0010
0100
0010
,
0100
0000
0000
0000
0001
1000
0001
1000
0001
1000
0001
1000
0001
0000
0000
0000
,
0010
0001
0010
0001
0010
0000
0100
1000
0100
1000
0100
0000
1000
0001
1000
0001
,
1000
0000
0000
0000
0010
0100
0010
0100
0010
0100
0010
0100
0010
0000
0000
0000
,
0100
0001
0100
0001
0100
0000
0010
1000
0010
1000
0010
0000
0100
0010
0100
0010
,
0100
0100
0100
0100
0010
0010
0010
0010
,
1002
0000
0100
0103
2001
0000
0100
3100
,
0210
0000
1000
1300
0120
0000
0100
0130
,
2100
0000
0001
3001
0102
0000
1000
1003
,
0010
0100
0010
0100
0010
0100
0010
0000
1000
0000
1000
0000
1000
0000
0000
0000
,
1010
1000
0101
0001
0011
0100
1100
1000
,
0110
0001
0011
0100
0101
1000
1001
0001
,
0011
0000
0011
0000
1100
0000
1100
0000
1000
0010
1000
0010
0100
0001
0100
0001
,
0010
0000
0011
1100
1001
0100
0110
0000
,
1002
0000
0000
0000
0103
0001
0100
0000
0010
0000
1000
0100
1000
0100
1000
0000
,
0001
0100
0000
0000
0010
1000
0010
1000
0001
1000
0001
1000
0100
0000
0000
0000
,
2100
0000
0000
0000
3002
0000
0000
0000
0103
0001
0100
0001
0010
0100
1000
0000
,
0001
0010
0001
0010
0001
0100
0001
0100
0001
1000
0001
1000
0001
0000
0000
0000
,
0101
0000
0000
0000
1100
0000
0000
0000
2010
0000
0000
0000
3001
1000
0010
0100
,
0001
0010
0001
0010
0001
0000
0100
0001
0100
0000
0000
0000
0101
0000
0000
0000
,
0120
0000
0000
0000
1030
0100
1000
0100
0010
0001
0010
0001
0100
0000
0000
0000
,
2000
0100
0000
0000
3002
0100
0000
0000
2003
0010
0000
0000
3002
0010
0000
0000
,
1003
0000
0000
0000
1000
0100
0010
0001
0100
0000
0001
1000
0001
0010
0100
1000
,
0010
0100
0010
0000
1000
0000
1000
0000
1000
0000
0001
0010
0100
0010
0100
1000
,
0020
0000
0000
0000
0230
0000
0000
0000
0301
0100
0001
1000
0100
0010
0001
0000
,
1000
0000
0000
0000
0001
0000
0000
0000
1000
0000
0000
0000
0100
0000
0000
0000
0010
0000
0000
0000
0001
0000
0000
0000
0100
0000
0000
0010
0000
0000
0100
0000
0000
0010
0000
0000
1000
0000
0000
0000
0000
0000
1000
0000
0000
0000
0000
0000
,
1200
0000
0000
0000
1300
0010
0100
0001
1000
0100
1000
0000
0010
0000
0100
0001
,
1000
0000
0000
0001
0000
0000
1000
0000
0000
0001
0000
0000
1000
0000
0000
0000
0010
0000
0000
0000
0100
0000
0000
0000
0020
0000
0000
0000
0000
0000
0000
0000
0000
0000
0000
0000
2030
0000
0000
0000
0000
0000
0000
0000
0000
0000
0000
0000
,
3002
0000
0000
0000
0103
0010
1000
0010
0100
0001
0000
0000
1000
0001
1000
0001
,
1000
0000
0000
0010
0100
0001
1000
0000
0100
0000
0000
0000
1001
0000
0000
0000
,
2000
0010
0000
0000
3002
0010
0000
0000
2003
0100
0000
0000
3002
0100
0000
0000
,
1003
0100
1000
0100
1000
0100
1000
0100
0010
0001
0010
0001
0010
0001
0010
0001
,
2000
0100
0000
0000
3002
0100
0000
0000
2003
0010
0000
0000
3002
0010
0000
0000
,
0103
0010
0100
0010
0100
0010
0100
0010
1000
0001
1000
0001
1000
0001
1000
0001
,
0100
0100
0110
0010
1010
1000
1001
0001
,
0011
1000
1100
0001
0101
0100
0110
0010
,
1001
0000
1001
0000
1010
0000
1010
0000
1000
0100
1000
0100
0010
0001
0010
0001
,
0100
0010
0000
0000
0110
0000
2002
0000
0000
0000
0000
0000
3000
0000
0000
0000
,
0013
0000
0000
0000
0001
0100
0001
0100
0001
0100
0000
0000
1000
0010
1000
0000
,
0000
0000
0001
0000
0001
0100
0001
0100
0010
1000
0010
0000
0000
1000
0100
0000
,
2000
0000
0000
0000
3010
0100
0010
0100
0010
0100
0000
0000
0001
1000
0001
0000
,
0000
0000
0010
0000
0010
0001
0010
0001
0100
0001
0100
0001
1000
0000
0000
0000
,
1002
0000
0000
0000
0103
0001
0100
0001
0100
0010
0100
0010
1000
0001
1000
0000
,
0000
0000
0101
0000
1000
0100
1000
0100
1000
0010
1000
0010
0100
0001
0100
0000
,
0120
0000
0000
0000
1030
0100
1000
0100
0010
0001
0010
0001
0100
0001
1000
0000
,
0000
0000
1100
0000
0001
1000
0001
1000
0010
0100
0010
0100
0010
0000
0000
0000
,
2000
0100
0000
0000
3002
0010
0000
0000
2003
0010
0000
0000
3002
0100
0000
0000
,
1003
0001
1000
0001
1000
0000
0000
0000
0010
0100
0010
0100
0010
1000
0001
0000
,
2000
0010
0000
0000
3002
0100
0000
0000
2003
0100
0000
0000
3002
0010
0000
0000
,
0103
0001
0100
0001
0100
0000
0000
0000
0010
1000
0010
1000
0100
0010
0001
0000
,
2000
0100
0000
0000
3200
0010
0000
0000
0320
0001
0000
0000
0032
1000
0000
0000
,
1003
0100
0010
0100
1000
0000
0000
0000
0001
0010
0100
1000
0100
0010
0001
0000
,
0200
0010
0000
0000
0320
1000
0000
0000
2030
0001
0000
0000
3002
0100
0000
0000
,
0013
0001
1000
0001
0010
0000
0000
0000
1000
0100
0010
0001
0010
0100
1000
0000
,
0001
0010
0001
0000
1000
0010
1000
0000
0001
0100
0001
0000
1000
0100
1000
0000
,
0010
0100
0010
0100
0010
0100
0010
0000
1000
0001
1000
0001
1000
0001
1000
0000
,
0001
0100
0001
0000
1000
0100
1000
0000
0001
0010
0001
0000
1000
0010
1000
0000
,
0010
0100
0010
0100
0010
0100
0010
0000
1000
0001
1000
0001
1000
0001
1000
0000
,
0001
0010
0001
0000
1000
0100
1000
0000
0001
0100
0001
0000
1000
0010
1000
0000
,
0001
0010
0100
1000
0100
0010
0001
0000
1000
0100
0010
0001
0010
0100
1000
0000
,
0010
0100
0010
0000
0100
0010
0100
0000
0001
1000
0001
0000
1000
0001
1000
0000
,
0010
0010
0100
0100
0001
0001
1000
1000
,
0200
0000
0000
0000
,
0000
0000
0000
0000
,
0000
0000
0000
0000
,
0300
0000
0000
0000
;

//---------------dance-single - ----------------
#NOTEDATA:;
#CHARTNAME:;
#STEPSTYPE:dance-single;
#DESCRIPTION:;
#CHARTSTYLE:;
#DIFFICULTY:Medium;
#METER:12;
#RADARVALUES:0.575899,0.647735,0.255685,0.375004,0.068183,473.000000,443.000000,30.000000,44.000000,0.000000,0.000000,0.000000,0.000000,0.000000,0.575899,0.647735,0.255685,0.375004,0.068183,473.000000,443.000000,30.000000,44.000000,0.000000,0.000000,0.000000,0.000000,0.000000;
#CREDIT:;
#DISPLAYBPM:155.000000;
#NOTES:
0000
0000
0000
0000
,
0000
0000
0000
0000
,
0000
0000
0000
0000
,
0000
0000
0000
0000
,
0000
0000
0000
0000
,
2000
3200
0320
0032
,
0203
0010
0310
0000
2000
0001
3001
0000
,
0002
0023
0230
2300
,
3020
1000
1030
0000
0002
0100
0103
0000
,
0001
1000
0010
1000
0100
0010
0001
0100
,
0001
0000
1000
0100
0010
0100
1000
0000
,
0010
0100
0010
1000
0001
0100
0001
1000
,
0100
0000
1000
0001
0010
0001
1000
0000
,
0010
1000
0100
0010
0001
1000
0001
0100
,
0001
0000
0010
0001
0100
0010
1000
0000
,
0100
1000
0010
0100
0001
0010
0001
1000
,
0100
0100
0100
0000
0010
0010
0010
0000
,
1001
0010
1001
0100
,
0011
0100
1010
0100
,
0101
0010
1100
0010
,
0001
1000
0001
0100
0001
1000
0100
0000
,
1100
1100
0011
0011
,
0101
0101
1010
1010
,
1000
0100
0010
0001
1000
0010
0100
0001
,
0010
0000
0001
0100
1000
0100
0001
0000
,
1001
0000
0010
1000
0100
0010
0100
1000
,
0001
0100
0001
1000
0001
0010
0100
1000
,
0020
0000
0230
0000
0301
1000
0100
0000
,
1000
0100
0010
0001
0100
0010
1000
0001
,
2000
0000
3001
0100
1000
0000
0001
0100
,
0010
1000
0100
0010
0002
0000
0013
0000
,
0011
0000
0100
0001
1000
0100
0010
0001
,
2000
3002
0203
0320
,
1030
0000
0010
1000
0100
0010
0001
0010
,
0001
1000
0100
0010
0001
0100
1000
0100
,
0002
0000
0023
0000
0031
1000
0100
0010
,
0100
1000
0100
1000
0001
0100
0001
0010
,
0200
0000
0000
0000
1300
0001
1000
0001
2000
0000
0000
0000
3010
0000
0100
0000
,
0001
0010
0100
1000
0020
0000
0130
0100
,
0110
0000
0000
0000
1000
0010
1000
0010
2000
0000
0000
0000
3100
0000
0000
0000
,
0002
0000
0000
0000
0103
0010
0100
0010
0100
0000
0000
0000
0110
0000
0000
0000
,
2000
3002
0203
0320
,
2030
0100
3100
0000
0002
0010
0013
0000
,
0200
0320
2030
3002
,
0203
0001
0301
1000
0020
0200
0330
0000
,
0011
0101
1100
1010
,
1001
0110
1001
0110
,
0010
0010
0001
0001
1000
1000
0100
0100
,
0110
0000
0100
2002
0000
0000
3000
0000
,
1003
0000
0000
0000
1000
0000
0100
0000
0010
0000
0001
0000
0100
0010
0100
0000
,
0000
0000
0010
0000
1000
0000
0100
0000
1000
0000
0001
0000
0100
0010
0100
0000
,
0001
0000
0000
0000
0010
0000
0001
0000
1000
0000
0100
0000
1000
0010
1000
0000
,
0000
0000
0001
0000
0010
0000
0100
0000
1000
0001
1000
0001
1000
0000
0000
0000
,
1010
0000
0000
0000
1000
0000
0100
0000
1000
0000
0010
0000
0100
0001
0100
0000
,
0000
0000
0001
0000
1000
0000
0100
0000
1000
0000
0010
0000
0100
0001
0100
0000
,
0101
0000
0000
0000
0010
0000
1000
0000
0100
0000
0010
0000
0001
1000
0001
0000
,
0000
0000
0100
0000
0001
0000
1000
0000
0010
0100
0010
0100
0010
0000
0000
0000
,
1000
0100
0010
0001
1000
0010
0100
0001
,
0010
0000
0010
0001
0100
0001
1000
0000
,
0001
0010
0100
1000
0001
0100
0010
1000
,
0100
0000
0100
1000
0001
1000
0010
0000
,
0100
0001
0100
0010
1000
0100
0010
0001
,
1000
0000
0001
1000
0100
0010
0001
0000
,
1000
0100
1000
0010
1000
0100
0010
0001
,
0010
0000
0001
1000
0001
0100
1000
0000
,
0001
0010
0100
1000
0010
0100
0001
1000
,
0010
1000
0010
0100
0010
0001
0010
0000
,
1000
0001
0010
0100
1000
0010
0100
0001
,
0100
1000
0100
0010
0100
0001
0100
0000
,
0001
0010
0001
1000
0100
0010
0100
1000
,
0010
0100
0010
0100
0001
1000
0100
0000
,
1000
0001
0010
0001
0100
0001
0100
0010
,
2000
0100
0010
3001
,
0200
0000
0000
0000
,
0000
0000
0000
0000
,
0000
0000
0000
0000
,
0300
0000
0000
0000
;

//---------------dance-single - ----------------
#NOTEDATA:;
#CHARTNAME:;
#STEPSTYPE:dance-single;
#DESCRIPTION:;
#CHARTSTYLE:;
#DIFFICULTY:Easy;
#METER:8;
#RADARVALUES:0.356741,0.518188,0.375004,0.315344,0.000000,293.000000,249.000000,44.000000,37.000000,0.000000,0.000000,0.000000,0.000000,0.000000,0.356741,0.518188,0.375004,0.315344,0.000000,293.000000,249.000000,44.000000,37.000000,0.000000,0.000000,0.000000,0.000000,0.000000;
#CREDIT:;
#DISPLAYBPM:155.000000;
#NOTES:
0000
0000
0000
0000
,
0000
0000
0000
0000
,
0000
0000
0000
0000
,
0000
0000
0000
0000
,
0000
0000
0000
0000
,
1000
0100
0001
0100
,
2000
3000
0002
0003
,
1000
0010
0001
0010
,
0200
0300
0020
0030
,
1000
0001
0100
0010
,
2000
3000
0200
0300
,
0010
0001
0100
1000
,
0002
0003
0020
0030
,
0001
0100
0001
1000
,
0020
0030
0200
0300
,
0010
1000
0100
0010
,
0001
0001
0001
0000
,
1001
0100
1001
0000
,
1001
0010
1001
0000
,
0110
1000
0110
0000
,
0010
0100
0001
0000
,
1001
0010
1001
0100
,
0110
1000
0110
0001
,
1001
0110
1001
0110
,
0001
1000
0100
0100
,
1001
0010
1000
0001
,
0100
0000
0010
0000
1000
0001
1000
0000
,
0002
2003
3010
0100
,
0001
1100
0101
0000
,
1001
0100
0010
0001
,
0100
0000
0010
0000
1000
0100
1000
0000
,
0001
0010
0001
0100
,
1000
0100
0001
0100
,
1001
0000
0110
0000
0010
0100
0010
0000
,
1000
0001
0100
0010
,
2000
0000
3020
0000
0130
0010
0100
0000
,
0001
1000
0001
0000
0200
0000
0300
0000
,
0110
0001
0100
1000
,
0010
0000
1000
0000
0001
0100
0001
0000
,
0020
0031
0001
0100
,
1000
0001
0100
1001
,
0010
0100
0010
0100
,
0002
0103
2000
3000
,
0001
1000
0001
1000
,
0020
1030
0200
0300
,
1100
0010
0101
0010
,
1001
0100
0110
0100
,
1001
1100
1001
0101
,
0110
0000
0000
2002
0000
0000
3000
0000
,
0013
0000
0001
0000
0100
0000
1000
1000
,
0000
0010
1000
1100
,
0001
0000
1000
0000
0010
0000
0100
0100
,
0000
0010
0100
0101
,
0010
0000
0100
0000
1000
0000
0001
0001
,
0000
0100
0001
0110
,
1000
0000
0001
0000
0100
0000
0010
0010
,
0000
0100
0001
1001
,
0010
1000
0010
0001
,
0200
0300
0200
0300
,
0001
0100
1000
0100
,
0020
0030
0020
0030
,
0100
0001
0100
1000
,
0002
0003
0002
0003
,
0010
0001
1000
0100
,
2000
3000
2000
3000
,
0010
1001
0100
1001
,
0002
1003
0020
0130
,
1000
0110
0001
0110
,
0200
0301
2000
3010
,
0001
0101
1000
1100
,
0020
0130
0002
1003
,
0101
0010
1100
0010
,
1000
1000
1000
0000
,
0200
0000
0000
0000
,
0000
0000
0000
0000
,
0000
0000
0000
0000
,
0300
0000
0000
0000
;

//---------------dance-single - ----------------
#NOTEDATA:;
#CHARTNAME:;
#STEPSTYPE:dance-single;
#DESCRIPTION:;
#CHARTSTYLE:;
#DIFFICULTY:Beginner;
#METER:4;
#RADARVALUES:0.214288,0.323867,0.102274,0.008523,0.000000,176.000000,164.000000,12.000000,1.000000,0.000000,0.000000,0.000000,0.000000,0.000000,0.214288,0.323867,0.102274,0.008523,0.000000,176.000000,164.000000,12.000000,1.000000,0.000000,0.000000,0.000000,0.000000,0.000000;
#CREDIT:;
#DISPLAYBPM:155.000000;
#NOTES:
// measure 0
0000
0000
0000
0000
,  // measure 1
0000
0000
0000
0000
,  // measure 2
0000
0000
0000
0000
,  // measure 3
0000
0000
0000
0000
,  // measure 4
0000
0000
0000
0000
,  // measure 5
1000
0000
0001
0000
,  // measure 6
0100
0000
0100
0000
,  // measure 7
0001
0000
1000
0000
,  // measure 8
0010
0000
0010
0000
,  // measure 9
1000
0000
0100
0000
,  // measure 10
0010
0000
0001
0000
,  // measure 11
0100
0000
0010
0000
,  // measure 12
1000
0000
0001
0000
,  // measure 13
0010
0000
0001
0000
,  // measure 14
0100
0000
1000
0000
,  // measure 15
0001
0000
1000
0000
,  // measure 16
0000
0000
0000
0000
,  // measure 17
1001
0000
1001
0000
,  // measure 18
0110
0000
0110
0000
,  // measure 19
1001
0000
1001
0000
,  // measure 20
0000
0000
0000
0000
,  // measure 21
1000
1000
1000
0000
,  // measure 22
0001
0001
0001
0000
,  // measure 23
0100
0100
0100
0000
,  // measure 24
0110
0000
0000
0000
,  // measure 25
1001
0000
1000
0000
,  // measure 26
0001
0001
0001
0000
,  // measure 27
0010
0010
0010
0000
,  // measure 28
0001
0001
0001
0000
,  // measure 29
0100
0000
0010
0000
,  // measure 30
1000
1000
1000
0000
,  // measure 31
0010
0000
1000
0000
,  // measure 32
0100
0000
0100
0000
,  // measure 33
0110
0000
0010
0000
,  // measure 34
0001
0001
0001
0000
,  // measure 35
1000
1000
1000
0000
,  // measure 36
0100
0100
0100
0000
,  // measure 37
1001
0000
0010
0000
,  // measure 38
0100
0100
0100
0000
,  // measure 39
0001
0001
0001
0000
,  // measure 40
1000
0000
0010
0000
,  // measure 41
0100
0100
0100
0000
,  // measure 42
0010
0000
0100
0000
,  // measure 43
0001
0001
0001
0000
,  // measure 44
1000
0000
0001
0000
,  // measure 45
0010
0010
0010
0000
,  // measure 46
0001
0001
0001
0000
,  // measure 47
0100
0100
0100
0000
,  // measure 48
1001
0000
0000
0000
,  // measure 49
1001
0000
1000
1000
,  // measure 50
0000
0001
0001
0001
,  // measure 51
0000
0100
0100
0100
,  // measure 52
0000
0001
0001
0000
,  // measure 53
0010
0000
0010
0010
,  // measure 54
0000
0100
0100
0100
,  // measure 55
0000
1000
1000
1000
,  // measure 56
0000
0001
0001
0000
,  // measure 57
0100
0100
0100
0000
,  // measure 58
0010
0000
1000
0000
,  // measure 59
0001
0001
0001
0000
,  // measure 60
0010
0000
1000
0000
,  // measure 61
0100
0100
0100
0000
,  // measure 62
1000
0000
0001
0000
,  // measure 63
1000
1000
1000
0000
,  // measure 64
0001
0000
0100
0000
,  // measure 65
0001
0001
0001
0001
,  // measure 66
0001
0000
1000
0000
,  // measure 67
0010
0010
0010
0010
,  // measure 68
0010
0000
0100
0000
,  // measure 69
0100
0100
0100
0100
,  // measure 70
0100
0000
0001
0000
,  // measure 71
1000
1000
1000
1000
,  // measure 72
0000
0000
0000
0000
,  // measure 73
0200
0000
0000
0000
,  // measure 74
0000
0000
0000
0000
,  // measure 75
0000
0000
0000
0000
,  // measure 76
0300
0000
0000
0000
;
