#TITLE:Celsus;
#SUBTITLE:;
#ARTIST:felys feat. Yoko Natsukawa;
#TITLETRANSLIT:;
#SUBTITLETRANSLIT:;
#ARTISTTRANSLIT:;
#GENRE:;
#CREDIT:;
#BANNER:Celsus-bn.png;
#BACKGROUND:Celsus-bg.png;
#LYRICSPATH:;
#CDTITLE:;
#MUSIC:Celsus.ogg;
#OFFSET:0.300000;
#SAMPLESTART:0.791000;
#SAMPLELENGTH:20.000000;
#SELECTABLE:YES;
#DISPLAYBPM:165.000000;
#BPMS:0.000000=165.000000
;
#STOPS:
;
#BGCHANGES:;
#KEYSOUNDS:;
#ATTACKS:;

//---------------dance-single - ----------------
#NOTES:
     dance-single:
     :
     Hard:
     12:
     0.567768,0.610380,0.263859,0.428771,0.123684,482.000000,450.000000,32.000000,52.000000,0.000000,0.000000,0.567768,0.610380,0.263859,0.428771,0.123684,482.000000,450.000000,32.000000,52.000000,0.000000,0.000000:
// measure 0
0000
0000
0000
0000
,  // measure 1
0000
0000
0000
0000
,  // measure 2
0000
0000
0000
0000
,  // measure 3
0000
0000
0000
0000
,  // measure 4
0000
0000
2000
3002
,  // measure 5
0013
0000
0001
0000
0100
0000
1010
0000
0000
0000
0101
0000
0000
0000
1000
0001
,  // measure 6
1000
0010
0100
0002
0000
0023
0000
0130
,  // measure 7
1000
0010
0100
0001
0000
1000
0010
1000
,  // measure 8
0200
0000
0000
0000
0000
0000
0000
0000
0000
0300
1000
0001
,  // measure 9
1000
0000
1000
0010
0000
0010
0200
0000
0000
0300
0000
0000
,  // measure 10
0002
0000
0010
0000
1000
1000
0000
0100
,  // measure 11
0100
1003
1100
0000
,  // measure 12
0001
0010
0001
1000
0000
0010
1000
0100
,  // measure 13
0000
0010
0010
0000
0001
1000
0001
0100
,  // measure 14
0010
1000
0100
0100
0000
0010
0001
0100
,  // measure 15
0000
0001
1000
0010
1000
0100
0010
0001
,  // measure 16
0100
0010
0100
0000
0001
0000
1000
0000
0000
0000
0010
0000
1000
0000
0100
0000
,  // measure 17
0000
1000
0001
0000
0010
0001
0010
0100
,  // measure 18
2000
0000
0010
0000
3100
1000
0001
0100
,  // measure 19
0000
0000
0010
0000
0110
0000
0000
0000
1000
0000
1000
0000
0001
0100
0001
0000
,  // measure 20
0020
0000
0031
2000
0000
0010
0000
0000
,  // measure 21
3200
0000
0001
0000
1000
1000
0000
0000
,  // measure 22
0310
0000
0001
1000
0000
1020
0000
0000
,  // measure 23
0130
0001
1000
0100
0010
0001
1000
0010
,  // measure 24
0200
0000
0001
0000
0310
1000
0001
0010
,  // measure 25
0000
0100
2000
0000
3002
0000
0203
0000
,  // measure 26
0320
0000
1030
0000
0001
0100
0000
2001
,  // measure 27
0000
0000
0000
3010
,  // measure 28
0002
0100
0103
0000
0002
1000
1003
0000
,  // measure 29
0010
0000
1000
0000
0100
0000
0000
0000
1000
0001
1000
0000
0100
0000
0010
0000
,  // measure 30
0001
0100
1000
0000
0001
0010
1000
0000
,  // measure 31
0100
0000
0010
0000
0100
0000
1000
0000
0001
0100
0001
0000
1000
0000
0010
0000
,  // measure 32
0200
0001
0301
0000
2000
0100
3100
0000
,  // measure 33
0010
0000
0001
0000
1000
0000
0001
0000
0100
0010
0100
0000
0001
0000
1000
0000
,  // measure 34
0200
0000
2300
0000
3002
0100
0103
0010
,  // measure 35
1000
0000
0100
0000
0001
0000
0000
0000
0010
0001
0010
0000
0100
0000
1000
0000
,  // measure 36
0002
0000
0000
0000
1003
0000
0000
0000
0010
1000
0010
0000
0100
0000
0000
0000
,  // measure 37
0001
0000
0010
0000
0001
0000
0100
0000
0010
1000
0010
0000
0100
0000
0001
0000
,  // measure 38
1000
0010
0100
0000
0010
1000
0001
0000
,  // measure 39
1000
0000
0100
0000
0010
0000
0100
0000
1000
0000
0000
0000
0001
0100
0001
0000
,  // measure 40
0010
0001
0010
0100
1000
0001
0100
0000
,  // measure 41
0110
0001
1000
0000
1100
0010
0001
0000
,  // measure 42
0011
0100
1000
1000
0000
0010
1000
0001
,  // measure 43
0100
0100
0000
1001
0100
0001
1000
0001
,  // measure 44
0020
0000
0230
0000
1300
0010
1000
1100
,  // measure 45
0000
0000
0101
0000
0000
0000
1000
0010
1000
0000
0100
0000
0010
0000
0002
0000
,  // measure 46
0000
2003
0000
3010
1000
0100
1000
0001
,  // measure 47
0000
0000
0100
0010
0100
0000
0001
0000
1000
0000
0010
0000
0200
0000
0000
0000
,  // measure 48
0302
0000
0013
0100
1000
1010
0000
0101
,  // measure 49
0000
0000
0100
0010
0100
0000
0001
0000
1000
0000
0200
0000
0000
0000
0320
0000
,  // measure 50
0000
0031
1000
0001
0100
0010
0000
1000
,  // measure 51
0001
1000
0200
0000
0010
0010
0000
0000
,  // measure 52
0300
0000
1000
0000
0001
0000
1000
0000
0000
0000
1000
0000
0010
0000
0000
0000
0010
0000
0200
0000
0000
0001
0000
0000
,  // measure 53
0301
0000
0020
0000
1000
0000
0100
0130
,  // measure 54
0000
0000
2000
0000
0001
0000
0010
3010
,  // measure 55
0000
0000
0100
0000
0001
0011
0000
1100
,  // measure 56
1000
0000
0001
1000
0001
0100
0000
0010
,  // measure 57
1000
0001
2000
0000
0010
0000
3100
1000
,  // measure 58
0001
0100
0000
0010
0200
0000
0301
0100
,  // measure 59
1000
0000
2100
0000
3001
0000
1000
0010
,  // measure 60
0000
1002
0000
0000
0000
0000
0000
0000
,  // measure 61
0010
0000
0103
0000
0110
0000
0000
0110
,  // measure 62
1000
0001
1000
0001
1000
0000
0000
0000
0000
0000
0101
0000
0000
0000
0010
0000
,  // measure 63
1000
0001
1000
0000
1100
0000
0000
1100
,  // measure 64
0000
0000
0000
0000
0010
0001
0100
0200
,  // measure 65
0000
0000
0310
0000
1001
0000
0000
1001
,  // measure 66
0100
0010
0100
0010
0100
0000
0001
0000
0000
0000
0000
0000
0011
0000
0000
0000
,  // measure 67
0100
1000
0001
0000
0120
0000
1030
1001
,  // measure 68
0000
0100
0001
0010
0001
0100
0010
1000
,  // measure 69
0001
0100
0001
0100
0002
0000
0000
0000
0013
0000
0000
0000
1000
0001
1000
0000
,  // measure 70
0100
0000
0000
0000
0010
0000
0001
0000
0100
0000
0000
0000
0010
1000
0010
0000
,  // measure 71
0100
0001
1000
0010
0001
0000
1000
0100
,  // measure 72
0001
0000
0000
0000
0010
0000
0001
0000
0100
0000
0000
0000
0001
1000
0001
0000
,  // measure 73
0100
0010
2000
0100
3100
1000
0001
0010
,  // measure 74
1000
0000
0101
0010
1000
0000
1100
0001
,  // measure 75
0100
0000
1001
0100
0001
1000
0100
0000
,  // measure 76
0011
0100
0010
1000
0000
0001
0001
1000
,  // measure 77
0001
0100
0020
0000
0000
0000
2030
0000
,  // measure 78
0000
3200
0000
0302
,  // measure 79
0000
0000
0013
0000
0001
0100
1000
0010
,  // measure 80
0200
0020
0000
0000
,  // measure 81
0000
0000
0000
0000
,  // measure 82
0000
0330
0000
0000
;
