#VERSION:0.83;
#TITLE:Caradbolg;
#SUBTITLE:;
#ARTIST:uma;
#TITLETRANSLIT:;
#SUBTITLETRANSLIT:;
#ARTISTTRANSLIT:;
#GENRE:;
#ORIGIN:;
#CREDIT:;
#BANNER:Caradbolg-bn.png;
#BACKGROUND:Caradbolg-bg.png;
#PREVIEWVID:;
#JACKET:Caradbolg-jacket.png;
#CDIMAGE:;
#DISCIMAGE:;
#LYRICSPATH:;
#CDTITLE:;
#MUSIC:Caradbolg.ogg;
#OFFSET:0.000000;
#SAMPLESTART:36.723999;
#SAMPLELENGTH:20.000000;
#SELECTABLE:YES;
#DISPLAYBPM:49.000000:196.000000;
#BPMS:0.000=130.667,
48.000=98.000,
60.000=196.000,
176.000=98.000,
197.000=49.000,
198.500=196.000,
294.500=98.000,
296.000=85.000,
296.500=70.000,
297.000=65.000,
297.500=55.000;
#STOPS:78.000=0.602,
127.000=0.602;
#DELAYS:;
#WARPS:;
#TIMESIGNATURES:0.000=4=4;
#TICKCOUNTS:0.000=4;
#COMBOS:0.000=1;
#SPEEDS:0.000=1.000=0.000=0;
#SCROLLS:0.000=1.000;
#FAKES:;
#LABELS:0.000=Song Start;
#BGCHANGES:;
#KEYSOUNDS:;
#ATTACKS:
;

//---------------dance-single - ----------------
#NOTEDATA:;
#CHARTNAME:;
#STEPSTYPE:dance-single;
#DESCRIPTION:;
#CHARTSTYLE:;
#DIFFICULTY:Hard;
#METER:15;
#RADARVALUES:0.842826,1.098597,0.086380,0.060466,0.790381,683.000000,673.000000,10.000000,7.000000,0.000000,0.000000,0.000000,0.000000,0.000000,0.842826,1.098597,0.086380,0.060466,0.790381,683.000000,673.000000,10.000000,7.000000,0.000000,0.000000,0.000000,0.000000,0.000000;
#CREDIT:;
#DISPLAYBPM:49.000000:196.000000;
#NOTES:
0000
0000
0000
0000
,
0000
0000
0000
0000
,
0000
0000
0000
0000
,
0000
0000
0000
0000
,
1000
0100
1000
0010
0000
0010
0100
0001
1000
0100
1000
0100
,
0010
0001
1000
0001
0000
0001
1000
0100
0010
0001
0100
0010
,
1000
0001
1000
0100
0000
0100
0010
0001
0100
0001
0010
0100
,
1000
0100
1000
0010
0000
0010
1000
0100
0010
0001
0100
0001
,
0010
0001
0100
0010
0000
1000
0010
1000
0001
0100
0010
1000
,
0100
1000
0001
0010
0000
0001
0100
0001
0010
0100
1000
0001
,
1000
0010
1000
0100
0000
1000
0010
1000
0001
0010
0100
1000
,
0010
0000
0010
1000
0100
0010
0002
0000
0000
0003
0000
0000
,
1000
1000
0100
0010
0001
0000
0100
0100
0001
1000
0100
0000
0010
0010
0010
0001
,
0100
0000
0010
0000
1000
0000
1000
0000
1000
0000
0001
0100
0001
0000
1000
0000
0010
0000
0010
0000
0100
0000
0001
0000
1000
0000
0000
0000
1000
0000
1000
0000
,
0010
0000
0100
0000
0001
0000
0000
0000
0010
0000
0010
0000
0010
0000
0100
0000
1000
0000
0000
0000
0001
0000
0001
0000
0001
0000
0100
0010
0100
0000
0010
0000
,
1000
0100
0001
0100
1000
0000
0001
0100
,
1000
0100
0001
0000
0010
0001
0010
0100
,
0010
1000
0010
0001
0100
0000
0010
1000
,
0100
0001
0100
1000
0001
0000
0010
0001
,
1000
0000
0001
0000
0100
0000
0000
0000
1001
0000
0000
0000
1000
0001
1000
0001
,
1000
0001
1000
0001
1000
0001
1000
0001
0100
0000
0010
1000
0010
0000
0100
0000
,
0001
0000
0000
0000
0010
0000
0001
1000
0001
0000
0100
0000
0010
0000
0000
0000
,
1000
0000
0100
0010
0100
0000
1000
0010
1000
0000
0001
0000
0100
0000
0010
1000
,
0010
0000
0100
0001
1000
0000
0100
0000
1000
0000
0001
0010
0001
0000
0100
0000
,
0010
0000
0000
0000
1000
0000
0010
1000
0100
0000
0010
0000
0001
0000
0000
0000
,
0100
0000
0001
0010
0001
0000
1000
0010
1000
0000
0000
0000
0001
0000
1000
0100
,
0010
0000
0001
0100
0010
0000
0000
0000
1000
0100
1000
0100
1000
0000
0010
0000
,
0100
0000
0000
0000
0001
0010
0001
0010
0001
0000
0100
0000
0010
0000
0000
0000
,
1000
0001
1000
0001
1000
0000
0010
1000
0100
0000
0010
0000
0001
0100
0001
0100
,
0001
0000
0010
0100
1000
0000
0000
0000
0010
1000
0010
1000
0010
0000
0100
0000
,
0001
0000
0000
0000
0010
0001
0010
0001
0010
0000
0100
0000
1000
0000
0000
0000
,
0010
1000
0010
0100
0001
0010
0100
1000
0010
0000
0100
0000
1001
0000
0000
0000
,
0010
1000
0100
1000
0010
0100
0001
0010
,
0001
1000
0100
0010
0001
0100
0010
1000
,
0001
1000
0010
1000
0100
0010
0001
1000
,
0001
1000
0010
1000
0100
0010
0100
0010
,
0100
1000
0010
0100
0001
0010
0001
0100
,
0010
0100
0001
1000
0100
1000
0010
0100
,
0001
1000
0010
0100
0010
1000
0001
0010
,
0001
1000
0100
1000
0100
0010
0100
0010
,
0100
1000
0010
0001
0010
0100
0010
1000
,
0001
0100
1000
0100
0010
1000
0100
0010
,
0001
0100
0010
1000
0001
0010
0100
1000
,
0001
1000
0020
0000
0000
0000
0030
0000
,
0010
0010
1000
0001
0100
0000
0001
0001
1000
0100
0010
0000
0100
0100
1000
0001
,
1000
0000
0000
0000
0010
0000
0010
0000
0010
0000
1000
0100
1000
0000
0000
0000
0001
0000
0001
0000
0001
0000
0010
0000
0100
0000
0000
0000
1000
0000
1000
0000
,
1000
0000
0010
0000
0001
0000
0000
0000
0010
0000
1000
0000
0100
0000
0010
0000
0001
0000
0000
0000
1000
0000
1000
0000
1000
0000
0100
0010
0001
0000
0001
0000
,
0001
1000
0100
0000
1100
0000
1000
0010
0100
0000
0110
0000
0100
0001
0010
0100
,
1000
0000
0010
0000
0100
0000
0100
0000
0100
0000
0001
1000
0001
0000
0000
0000
1000
0000
1000
0000
0100
0000
0000
0000
1001
0000
0000
0000
0010
0000
0010
0000
,
0001
0100
0101
0000
2020
0000
0030
3010
0110
1001
0110
0000
1000
0100
1000
0000
,
0001
0100
0001
0000
0010
0000
0100
0000
1000
0001
1000
0000
0010
1000
0100
0000
,
0010
0000
0001
0000
1000
0010
1000
0000
0001
0010
0100
0000
1000
0000
0010
0000
,
1000
0001
1000
0000
0100
0010
0001
0000
0000
0000
0001
0000
1000
0010
1000
0000
,
0100
0010
0001
0000
0100
0000
0010
0000
0100
0001
1000
0000
0010
1000
0001
0000
,
0100
0000
0001
0000
0010
0100
0010
0000
0100
1000
0001
0000
1000
0000
0010
0000
,
1000
0100
0010
0000
0001
0100
0001
0000
1000
0000
0010
0000
1000
0001
0100
0000
,
0001
1000
0100
0000
0010
0000
0001
0000
0100
0010
1000
0000
0100
0010
0001
0000
,
1000
0000
0100
0000
0010
0100
1000
0000
0010
1000
0001
0000
0010
0000
0001
0000
,
1000
0001
0010
0000
0100
1000
0010
0000
0000
0000
1000
0000
0100
0010
0100
0000
,
1000
0001
0010
0000
0001
0000
0010
0000
0001
0100
0001
0000
1000
0100
1000
0000
,
0010
0000
0001
0000
0100
0010
1000
0000
0100
1000
0001
0000
0010
0000
0002
0000
,
0000
0000
0000
0000
0000
0000
1003
0100
1000
0100
1000
0000
0010
0000
0100
0000
,
0001
0010
0000
0001
1000
0010
1000
0100
,
0000
0010
0001
0100
0010
1000
0001
0100
,
0010
1000
0000
0010
1000
0001
1000
0100
,
0010
0001
0000
0100
0001
0010
0100
1000
,
0000
0000
0010
0000
1000
0000
0001
0000
1000
0000
0100
0000
0000
0000
1000
0001
,
1000
0001
1000
0001
1000
0001
1000
0001
1000
0001
0100
0000
0010
0000
0100
0000
,
0001
1000
0010
1000
0100
0010
0001
1000
,
0010
0001
0010
1000
0100
0001
0100
1000
,
0001
1000
0010
0001
0010
0100
0001
0010
,
0100
1000
0010
1000
0100
0010
0100
0010
,
0001
0100
0010
1000
0001
1000
0100
0020
,
0000
0000
0000
0000
0000
0031
0100
1000
,
0001
0000
0000
0010
0000
0000
1000
0000
0000
0000
0010
0000
0000
0100
0000
0000
0001
0000
0000
0000
2000
0000
0000
0000
0000
0000
3000
0000
0000
0000
0000
0000
;

//---------------dance-single - ----------------
#NOTEDATA:;
#CHARTNAME:;
#STEPSTYPE:dance-single;
#DESCRIPTION:;
#CHARTSTYLE:;
#DIFFICULTY:Medium;
#METER:12;
#RADARVALUES:0.568877,0.808467,0.466454,0.241865,0.241865,461.000000,407.000000,54.000000,28.000000,0.000000,0.000000,0.000000,0.000000,0.000000,0.568877,0.808467,0.466454,0.241865,0.241865,461.000000,407.000000,54.000000,28.000000,0.000000,0.000000,0.000000,0.000000,0.000000;
#CREDIT:;
#DISPLAYBPM:49.000000:196.000000;
#NOTES:
0000
0000
0000
0000
,
0000
0000
0000
0000
,
0000
0000
0000
0000
,
0000
0000
0000
0000
,
1000
0000
0100
0000
1000
0000
0001
0000
0100
0000
0001
0000
,
0010
0000
0100
0000
1000
0000
0010
0000
0100
0000
0001
0000
,
1000
0000
0001
0000
0010
0000
0001
0000
1000
0000
0100
0000
,
1000
0000
0010
0000
1000
0000
0001
0000
0010
0000
0001
0000
,
1001
0000
0100
0000
1000
0000
0110
0000
0010
0000
0001
0000
,
0101
0000
0010
0000
0100
0000
1010
0000
0001
0000
1000
0000
,
1100
0000
1000
0000
0010
0000
0011
0000
0100
0000
0001
0000
,
0010
0000
0001
1000
0010
0100
0002
0000
0000
0003
0000
0000
,
1000
1000
0000
0001
0100
0000
0010
0010
0000
0100
0001
0000
0100
0100
0000
0010
,
1000
0001
0100
0010
0100
0000
0100
0000
0001
0001
0000
1000
0010
0000
1000
1000
,
0000
0100
0010
0000
0001
0001
0000
0100
0010
1000
0001
0100
0001
0000
0001
0000
,
1001
0100
0010
1000
,
0100
0000
0001
0000
0011
0000
0001
1000
,
0010
1000
0100
0000
0010
0000
0001
1000
,
0010
0000
1000
0100
0010
0000
0001
0000
,
0100
0001
1000
0000
1001
0000
1000
1000
,
0001
0001
1000
1000
0010
0000
1000
0001
,
0100
0000
0001
0000
0010
0100
1000
0000
,
0010
0000
1000
0001
0010
0100
1000
0010
,
0100
0000
0010
0100
0001
0000
1000
0100
,
0010
0000
0001
0000
0100
0010
1000
0000
,
0001
0010
1000
0010
0001
0000
0100
0001
,
0100
1000
0100
0000
0110
0000
0001
1000
,
0100
0000
1100
0000
1000
0010
0100
0000
,
0101
0000
0010
0001
0010
1000
0010
0100
,
0010
0000
0100
1000
0001
0000
1000
0001
,
0010
0000
0001
0000
0100
0010
1000
0000
,
0010
1000
0100
0010
0001
0000
1001
0000
,
0020
0000
0000
0000
0000
1000
2030
0000
,
0000
3001
0202
0003
,
0310
0100
0010
1000
0100
0000
0100
0010
,
0002
0000
0000
0100
0103
0000
0101
0000
,
1001
0000
1100
0000
1010
0000
1000
0001
,
0010
0001
2000
0000
0000
0000
3100
0010
,
0002
0000
0000
0000
0000
0010
0023
0000
,
0000
0031
2002
3000
,
0103
0001
0010
0100
1000
0000
0010
1000
,
0002
0000
0000
1000
1003
0000
1010
0000
,
1001
0000
0011
0000
1100
0000
1000
0010
,
1000
0100
0020
0000
0000
0000
0030
0000
,
0010
0000
0101
0000
0101
0000
1000
0000
1100
0000
1100
0000
1000
0001
0100
0000
,
0010
2000
0000
0000
3001
0011
0011
1000
,
0010
0100
0010
0000
0200
0000
0000
0001
0301
0000
2002
0000
0000
0000
3000
0000
,
0103
0000
1001
0000
1001
0000
0010
0000
1010
0000
1010
0000
1000
0100
0010
0000
,
0001
0200
0000
0000
0320
0000
0000
2030
,
0000
3001
1000
0000
0020
0000
0000
0130
0110
1001
0110
0000
0000
0000
1000
0000
,
0100
0001
0000
0011
0000
0010
0100
1000
,
0000
0001
0010
1000
0010
0001
0100
0010
,
1000
0100
0000
0011
0000
1010
0000
0001
,
0100
1000
0000
0110
0000
0010
0100
0001
,
0000
1001
0000
0010
0001
0100
0010
1000
,
0100
0010
0000
0001
0001
0001
0000
1000
,
0001
0100
0000
1001
0000
1000
0010
0100
,
0000
0010
1000
0100
0010
0001
0100
1000
,
0100
0001
0000
0101
0000
1100
0000
0010
,
1000
0001
0000
0110
0000
0100
0001
1000
,
0000
0001
1000
0010
1000
0100
0010
0002
,
0000
0000
0000
0010
0010
0013
0000
0001
,
0000
0100
0000
0010
0000
1000
0000
0100
,
1000
0001
0000
0001
1000
0100
1000
0020
,
0000
0000
0000
0130
0010
1000
0000
0001
,
0100
0010
0000
1000
0000
0001
0000
1000
,
0000
0010
0000
0100
0001
0010
0100
2000
,
0000
0000
0000
3001
1000
0001
0000
0011
,
0000
0011
0000
1000
0000
1100
0000
1100
,
1000
0001
0000
0100
0010
0100
0010
2000
,
0000
0100
0000
3001
1000
0020
0000
0130
,
0001
1000
0000
1100
0000
0110
0000
0011
,
0000
1001
0000
0100
0010
1000
0000
0002
,
0000
0000
0000
0000
0000
0013
0000
0010
,
0001
0000
0000
1000
0000
0010
0000
0000
1000
0000
0200
0000
0000
0000
0300
0000
;

//---------------dance-single - ----------------
#NOTEDATA:;
#CHARTNAME:;
#STEPSTYPE:dance-single;
#DESCRIPTION:;
#CHARTSTYLE:;
#DIFFICULTY:Easy;
#METER:7;
#RADARVALUES:0.354160,0.452741,0.207313,0.190037,0.008638,287.000000,263.000000,24.000000,22.000000,0.000000,0.000000,0.000000,0.000000,0.000000,0.354160,0.452741,0.207313,0.190037,0.008638,287.000000,263.000000,24.000000,22.000000,0.000000,0.000000,0.000000,0.000000,0.000000;
#CREDIT:;
#DISPLAYBPM:49.000000:196.000000;
#NOTES:
0000
0000
0000
0000
,
0000
0000
0000
0000
,
0000
0000
0000
0000
,
0000
0000
0000
0000
,
1000
1001
0010
0100
,
0001
1001
0100
0010
,
1000
1100
0001
0010
,
0001
0101
1000
0100
,
1000
1100
0001
0101
,
0100
0011
0010
1010
,
1000
1001
0010
0110
,
0100
0001
1000
0000
,
0020
0000
0130
0002
0000
1003
0200
0000
,
1300
2000
0000
3010
2000
0000
3001
0200
,
0000
0301
0002
0000
1003
0020
0000
0030
,
1001
0000
0100
0110
,
0000
0010
1010
0000
,
1000
0101
0000
0001
,
0011
0000
0001
1100
,
0000
0010
1001
0010
,
0010
0010
1001
0100
,
1000
0001
1000
0100
,
0010
0001
0100
0001
,
1000
0010
1000
0100
,
0001
0010
0100
1000
,
0010
1000
0001
0010
,
0100
0010
0001
0100
,
1000
0001
1000
0010
,
1000
0100
0010
0100
,
0010
0001
1000
0001
,
0010
0001
0100
1000
,
0010
1000
0100
1001
,
0010
0001
0100
0010
,
1000
0100
0010
0001
,
1000
0100
0100
0100
,
1000
0010
0001
1000
,
0100
0010
0100
1000
,
0001
0010
0000
0000
,
0001
0100
1000
0010
,
1000
0001
0100
0010
,
0001
0010
0010
0010
,
0001
1000
0100
1000
,
0010
0100
0010
1000
,
0001
0020
0000
0030
,
0002
0000
0000
2003
0000
0000
3010
0100
,
0001
2000
0000
0000
3020
0000
0000
0230
,
0000
0000
0301
0010
0100
2000
0000
3000
,
1100
0000
0000
0101
0000
0000
1000
0100
,
0010
0002
0000
0003
0011
0000
0000
1010
,
0000
0000
0000
0000
0020
0000
0000
0000
0100
0130
0110
0000
0000
0000
0001
0000
,
0000
1000
0000
0010
0000
1000
0000
0100
,
0000
0010
0000
0001
0000
1000
0000
0010
,
0000
0100
0000
0001
0000
0010
0000
0001
,
0000
0100
0000
0001
0000
1000
0000
0100
,
0000
0010
0000
0100
0000
0010
0000
0001
,
0000
0100
0000
1000
0000
0001
0000
1000
,
0000
0010
0000
1000
0000
0100
0000
0001
,
0000
0010
0000
0001
0000
0010
0000
0100
,
0000
0010
0000
0100
0000
1000
0000
0010
,
0000
0001
0000
0100
0000
0010
0000
1000
,
0000
0100
0000
0010
0000
0001
0000
2000
,
0000
0000
0000
0000
0000
3001
0000
0000
,
0000
0001
0000
1000
0000
0000
0000
1000
,
0000
0001
0000
0100
0000
0010
0000
2000
,
0000
0000
0000
0000
0000
3010
0000
0000
,
0000
0010
0000
0100
0000
0000
0000
0100
,
0000
0010
0000
1000
0000
0001
0000
0200
,
0000
0000
0000
0000
0000
0310
0000
0100
,
0000
0001
0000
0010
0000
0001
0000
1000
,
0000
0100
0000
0010
0000
0001
0000
0100
,
0000
0001
0000
1000
0000
0010
0000
0100
,
0000
0010
0000
1000
0000
0100
0000
0001
,
0000
1000
0000
0010
0000
0001
0000
0200
,
0000
0000
0000
0000
0000
0301
0000
0000
,
0010
0000
0000
0000
0000
0100
0000
0000
0000
0000
2000
0000
0000
0000
3000
0000
;

//---------------dance-single - ----------------
#NOTEDATA:;
#CHARTNAME:;
#STEPSTYPE:dance-single;
#DESCRIPTION:;
#CHARTSTYLE:;
#DIFFICULTY:Beginner;
#METER:2;
#RADARVALUES:0.157953,0.193384,0.043190,0.000000,0.000000,128.000000,123.000000,5.000000,0.000000,0.000000,0.000000,0.000000,0.000000,0.000000,0.157953,0.193384,0.043190,0.000000,0.000000,128.000000,123.000000,5.000000,0.000000,0.000000,0.000000,0.000000,0.000000,0.000000;
#CREDIT:;
#DISPLAYBPM:49.000000:196.000000;
#NOTES:
// measure 0
0000
0000
0000
0000
,  // measure 1
0000
0000
0000
0000
,  // measure 2
0000
0000
0000
0000
,  // measure 3
0000
0000
0000
0000
,  // measure 4
1000
0000
0001
0000
,  // measure 5
1000
0000
0001
0000
,  // measure 6
0100
0000
0010
0000
,  // measure 7
0100
0000
0010
0000
,  // measure 8
1000
0000
0100
0000
,  // measure 9
0010
0000
0001
0000
,  // measure 10
0100
0000
0010
0000
,  // measure 11
1000
0000
0001
0000
,  // measure 12
0010
0000
0000
0001
,  // measure 13
0000
0000
1000
0000
,  // measure 14
0000
0100
0000
0000
,  // measure 15
1001
0000
0000
1000
,  // measure 16
0000
0000
0001
0000
,  // measure 17
0000
0100
0000
0000
,  // measure 18
0010
0000
0000
0100
,  // measure 19
0000
0000
1001
0000
,  // measure 20
0000
0000
0001
0000
,  // measure 21
0000
1000
0000
0000
,  // measure 22
0010
0010
0010
0010
,  // measure 23
0000
0000
0100
0000
,  // measure 24
0000
0001
0000
0000
,  // measure 25
1000
0000
0000
1000
,  // measure 26
0000
0000
0001
0000
,  // measure 27
0000
1000
0000
0000
,  // measure 28
0100
0100
0100
0100
,  // measure 29
0000
0000
0010
0000
,  // measure 30
0000
0100
0000
0000
,  // measure 31
1000
0000
0000
1001
,  // measure 32
0001
0000
0000
1000
,  // measure 33
0000
0000
0001
0000
,  // measure 34
0000
0100
0100
0100
,  // measure 35
0100
0000
0000
0010
,  // measure 36
0000
0000
1000
0000
,  // measure 37
0000
1000
0000
0000
,  // measure 38
0001
0000
0000
0010
,  // measure 39
0000
0000
0100
0000
,  // measure 40
0000
1000
1000
1000
,  // measure 41
1000
0000
0000
0001
,  // measure 42
0000
0000
0100
0000
,  // measure 43
0000
0100
0000
0000
,  // measure 44
0001
0000
0000
1000
,  // measure 45
0000
0000
0010
0000
,  // measure 46
0000
0100
0000
0000
,  // measure 47
0001
0000
0000
0001
0000
0000
0001
0000
,  // measure 48
0000
0000
0000
0000
1000
0000
0000
1000
,  // measure 49
0000
0000
1000
0000
0000
1001
0000
0000
,  // measure 50
0000
0000
0000
0010
0000
0000
0000
0000
,  // measure 51
0000
1000
0000
1000
0000
1000
0000
1000
,  // measure 52
0000
0000
0000
0000
0000
0100
0000
0000
,  // measure 53
0000
0000
0000
0010
0000
0000
0000
0000
,  // measure 54
0000
0001
0000
0001
0000
0001
0000
0001
,  // measure 55
0000
0000
0000
0000
0000
0010
0000
0000
,  // measure 56
0000
0000
0000
0001
0000
0000
0000
0000
,  // measure 57
0000
0010
0000
0010
0000
0010
0000
0010
,  // measure 58
0000
0000
0000
0000
0000
0100
0000
0000
,  // measure 59
0000
0000
0000
1000
0000
0000
0000
0000
,  // measure 60
0000
1000
0000
0000
0000
0000
0000
0001
,  // measure 61
0000
0000
0000
0000
0000
0100
0000
0000
,  // measure 62
0000
0000
0000
0000
,  // measure 63
0000
0010
0000
0010
0000
0010
0000
0010
,  // measure 64
0000
0000
0000
0000
0000
1000
0000
0000
,  // measure 65
0000
0000
0000
0000
,  // measure 66
0000
0100
0000
0100
0000
0100
0000
0100
,  // measure 67
0000
0000
0000
0000
0000
0010
0000
0000
,  // measure 68
0000
0000
0000
0100
0000
0000
0000
0000
,  // measure 69
0000
1000
0000
1000
0000
1000
0000
1000
,  // measure 70
0000
0000
0000
0000
0000
0010
0000
0000
,  // measure 71
0000
0000
0000
1000
0000
0000
0000
0000
,  // measure 72
0000
0001
0000
0001
0000
0001
0000
0001
,  // measure 73
0000
0000
0000
0000
0000
0100
0000
0000
,  // measure 74
0000
0000
0000
0000
0000
1001
0000
0000
;
