#VERSION:0.83;
#TITLE:CAPTURING XANADU;
#SUBTITLE:;
#ARTIST:Maoki Yamamoto;
#TITLETRANSLIT:;
#SUBTITLETRANSLIT:;
#ARTISTTRANSLIT:;
#GENRE:;
#ORIGIN:;
#CREDIT:;
#BANNER:[Uncommon Time] - CAPTURING XANADU.png;
#BACKGROUND:[Uncommon Time] - CAPTURING XANADU-bg.png;
#PREVIEWVID:;
#JACKET:[Uncommon Time] - CAPTURING XANADU-jacket.png;
#CDIMAGE:;
#DISCIMAGE:;
#LYRICSPATH:;
#CDTITLE:;
#MUSIC:[Uncommon Time] - CAPTURING XANADU.mp3;
#OFFSET:0.900000;
#SAMPLESTART:70.565002;
#SAMPLELENGTH:20.000000;
#SELECTABLE:YES;
#DISPLAYBPM:136.000000;
#BPMS:0.000=136.010;
#STOPS:;
#DELAYS:;
#WARPS:;
#TIMESIGNATURES:0.000=4=4;
#TICKCOUNTS:0.000=4;
#COMBOS:0.000=1;
#SPEEDS:0.000=1.000=0.000=0;
#SCROLLS:0.000=1.000;
#FAKES:;
#LABELS:0.000=Song Start;
#BGCHANGES:;
#KEYSOUNDS:;
#ATTACKS:
;

//---------------dance-single - X Scale 15----------------
#NOTEDATA:;
#CHARTNAME:;
#STEPSTYPE:dance-single;
#DESCRIPTION:X Scale 15;
#CHARTSTYLE:;
#DIFFICULTY:Challenge;
#METER:15;
#RADARVALUES:0.732613,0.792046,0.567898,0.352785,0.834638,596.000000,530.000000,66.000000,41.000000,0.000000,0.000000,0.000000,0.000000,0.000000,0.732613,0.792046,0.567898,0.352785,0.834638,596.000000,530.000000,66.000000,41.000000,0.000000,0.000000,0.000000,0.000000,0.000000;
#CREDIT:;
#DISPLAYBPM:136.000000;
#NOTES:
// measure 0
0000
0000
0000
0000
,  // measure 1
0000
1000
0100
1000
0100
0000
0000
1000
0001
1000
0001
1000
0000
0010
0100
0010
,  // measure 2
0100
0000
0100
0001
0100
0001
0100
0001
0100
0001
0100
0001
0100
0001
0100
0001
,  // measure 3
0000
0000
0101
0000
0000
1010
0000
0000
0000
1100
0000
0000
0011
0000
0000
2002
,  // measure 4
0000
0000
0000
0000
,  // measure 5
3003
0000
1010
0000
0000
0011
0000
0000
0000
1100
0000
0000
0101
0000
0000
0220
,  // measure 6
0000
0000
0000
0000
,  // measure 7
0000
0000
0000
0000
0000
0000
0330
0000
1001
0000
0000
0110
0000
0000
0000
0000
,  // measure 8
1000
0000
0001
0100
0000
0002
2000
0000
0000
0000
0000
0000
0000
0000
0000
0000
,  // measure 9
0000
0000
0000
0000
0000
0000
0000
0000
3003
0110
0000
0000
1001
0000
0000
0000
,  // measure 10
0010
0000
0100
0001
0000
0200
0020
0000
0000
0000
0000
0000
0000
0000
0000
0000
,  // measure 11
0000
0000
0000
0330
2010
0100
3100
0000
,  // measure 12
1100
0000
1000
0100
0000
0010
0002
0000
0100
0000
0103
0000
0000
0010
0001
1000
,  // measure 13
0001
1000
0010
1000
0200
0000
0010
0000
0310
0000
0000
0000
0001
0100
0001
0100
,  // measure 14
0000
0010
2000
0000
0001
0000
3001
0000
0100
0000
0010
1000
0010
0100
0001
1000
,  // measure 15
0002
0000
0010
0000
0013
0000
0001
0000
0100
0010
0000
1000
0000
0001
2000
0000
,  // measure 16
0100
0000
3100
0000
1000
0000
0010
0100
0000
0001
0000
0010
0200
0000
1000
0000
,  // measure 17
1300
0000
0001
0000
0010
0100
0000
1000
0000
0001
0020
0000
0001
0000
0031
0000
,  // measure 18
0100
0000
0001
1000
0000
0100
0000
1000
0001
1000
0001
1000
0010
0100
0010
0100
,  // measure 19
0010
0000
0000
0000
1000
0100
1000
0000
0010
0200
0000
0301
1000
0000
0001
0000
,  // measure 20
0101
0000
0011
0000
0100
0000
0000
0110
0000
0000
1001
0000
0000
0000
1000
0000
,  // measure 21
0001
0000
0011
0000
0000
1100
0000
0000
0102
0000
1000
0000
1003
0000
0000
0001
,  // measure 22
1000
0100
1000
0100
0010
0001
0010
0001
0100
0000
0000
0000
0001
1000
0001
0000
,  // measure 23
1000
0020
0000
0130
0010
0000
1000
0000
1010
0000
0001
0000
1000
0100
0000
1000
,  // measure 24
0000
0001
0100
0000
0001
0000
0010
0001
0010
0001
0000
0100
0010
1000
0001
0100
,  // measure 25
0000
0010
0000
0100
0001
0000
0000
0100
0010
1000
0010
1000
0001
0100
0001
0100
,  // measure 26
0010
0000
0000
0000
1000
0001
0100
0000
0010
2000
0000
3001
1000
0000
0010
0000
,  // measure 27
0100
0000
0100
0000
1010
0000
0000
1001
0000
0000
0101
0000
0000
0000
0010
0000
,  // measure 28
0100
0000
0011
0000
0000
0110
0000
0000
2100
0000
0001
0000
3001
0000
0000
0100
,  // measure 29
0001
0010
0001
0010
0100
1000
0100
1000
0010
0000
0000
0000
0100
0001
1000
0000
,  // measure 30
0100
0020
0000
0130
0010
0000
0001
0000
1000
0000
1000
0000
0001
1000
0000
0010
,  // measure 31
0000
1000
0001
0000
0100
0000
0010
1000
0010
0100
0000
0001
0000
1000
0100
0000
,  // measure 32
0010
0001
0100
1000
1001
0100
0010
1000
,  // measure 33
0100
0000
0000
0010
0000
0000
0001
0000
1000
0000
0001
0000
2000
0000
0000
0100
0000
0000
3100
0000
0000
0010
0000
0000
,  // measure 34
0002
1000
1003
0000
0101
0100
1100
1000
,  // measure 35
1010
0000
0010
0000
0011
0000
0000
0000
0120
0000
0000
0000
1030
0000
0100
1000
,  // measure 36
0002
0000
0000
0000
0013
0000
0000
0010
0200
0000
0000
0000
1300
0000
0000
0000
,  // measure 37
1000
0010
0100
0010
0100
0001
1000
0001
0020
0000
0000
0032
0000
0000
0203
0000
,  // measure 38
0000
0000
0310
0000
0100
0000
1000
0000
1000
0000
0000
1000
0100
0000
0000
0100
,  // measure 39
0010
0000
0000
0010
0002
0000
0000
0000
0103
0000
0000
0100
0010
0000
0000
0010
,  // measure 40
1000
0000
0000
1000
0002
0000
0000
0000
0103
0000
0010
0000
0110
0000
1001
0000
,  // measure 41
0000
1000
1100
0101
0000
0001
0011
1010
,  // measure 42
1000
0100
0000
1000
0100
0010
0001
0000
1000
0000
0001
0000
0011
0000
1100
0000
,  // measure 43
0000
0100
0110
0101
0000
0010
1010
1001
,  // measure 44
0010
0100
0000
0010
0100
0001
1000
0000
0010
0000
1010
0000
1001
0000
0101
0000
,  // measure 45
1100
0100
0110
0011
0000
0001
0100
0010
,  // measure 46
1000
0001
0000
0001
0010
0100
1000
0000
0010
0000
0100
0000
0002
0000
2000
0000
,  // measure 47
0000
3003
0000
0000
1000
0001
0100
0010
1000
0100
1000
0100
0010
0001
0010
0001
,  // measure 48
0200
0000
0000
0000
0300
0000
0000
0100
0001
0100
0001
0100
0010
1000
0010
1000
,  // measure 49
0100
0000
0000
0100
1000
0001
1000
0001
0100
0010
0100
0010
2000
0000
0000
0000
,  // measure 50
0000
3001
0010
0100
1000
0100
0010
0002
0100
0000
0000
0000
0013
0000
0000
0000
,  // measure 51
2000
3001
0020
0001
,  // measure 52
0100
0000
1030
0000
0010
1001
0100
0010
,  // measure 53
1000
0100
0000
0010
0000
0001
0100
0000
0001
0000
0101
0000
1000
0000
0100
0000
,  // measure 54
0010
0100
0000
1000
0000
0001
0100
0000
0010
0000
0011
0000
0010
0000
0100
0000
,  // measure 55
1000
0001
0000
0100
0000
0010
0100
0000
0001
0000
0001
0000
1000
0000
1000
0000
,  // measure 56
0010
0100
0000
0010
0000
0100
0010
0000
1000
0000
1100
0000
0010
0000
0001
0000
,  // measure 57
1000
0001
0000
0010
0000
0100
1000
0000
0010
0000
1010
0000
0100
0000
1000
0000
,  // measure 58
0100
1000
0000
0001
0000
1000
0010
0000
0001
0000
0110
0000
1000
0000
0001
0000
,  // measure 59
0010
0001
0000
0100
0000
0001
0010
0000
0100
0000
0100
0000
0010
0000
0010
0000
,  // measure 60
0001
1000
0000
0001
0000
1000
0001
0000
0000
1000
0100
1000
0100
0000
0000
1000
,  // measure 61
0001
1000
0001
1000
0000
0010
0100
0010
0100
0000
0100
0001
0100
0001
0100
0001
,  // measure 62
0100
0001
0100
0001
0100
0001
0100
0001
0000
0000
0011
0000
0000
0101
0000
0000
,  // measure 63
0000
1100
0000
0000
1010
0000
0000
0220
0000
0000
0000
0000
0000
0000
0000
0000
,  // measure 64
0000
0000
0000
0000
0000
0000
0000
0000
0000
0000
0000
0000
0330
0000
0000
0010
,  // measure 65
1000
0100
1000
0001
0010
0100
0010
0001
0000
1000
0001
1000
1001
0000
0000
0000
;

//---------------dance-single - X Scale 12----------------
#NOTEDATA:;
#CHARTNAME:;
#STEPSTYPE:dance-single;
#DESCRIPTION:X Scale 12;
#CHARTSTYLE:;
#DIFFICULTY:Hard;
#METER:12;
#RADARVALUES:0.587566,0.650609,0.826034,0.576503,0.456039,478.000000,382.000000,96.000000,67.000000,0.000000,0.000000,0.000000,0.000000,0.000000,0.587566,0.650609,0.826034,0.576503,0.456039,478.000000,382.000000,96.000000,67.000000,0.000000,0.000000,0.000000,0.000000,0.000000;
#CREDIT:;
#DISPLAYBPM:136.000000;
#NOTES:
0000
0000
0000
0000
,
0000
1000
0000
0000
1100
0000
0000
0001
0000
0000
0101
0000
0000
0100
0000
0000
,
0110
0000
0000
0010
0000
0000
1010
0000
0000
0011
0000
0000
0001
1000
0001
2000
,
0000
0000
3002
0000
0000
0023
0000
0000
0000
0230
0000
0000
1300
0000
0000
2002
,
0000
0000
0000
0000
,
3003
0000
0020
0000
0000
0130
0000
0000
0000
0101
0000
0000
1010
0000
0000
2002
,
0000
0000
0000
0000
,
0000
0000
0000
0000
0000
0000
3003
0000
2000
0000
0000
0002
0000
0000
3003
0000
,
0101
0000
0000
1010
0000
0000
0220
0000
0000
0000
0000
0000
0000
0000
0000
0000
,
0000
0000
0000
0000
0000
0000
0000
0000
0330
0020
0000
0000
1030
0000
0000
0000
,
2000
0000
0000
3002
0000
0000
0200
0000
0000
0000
0000
0000
0000
0000
0000
0000
,
0000
0000
0000
0303
2002
0000
3003
0000
,
0010
0000
1000
0001
0000
1000
0020
0000
0000
0000
0030
0000
0000
0010
1000
0000
,
0001
0100
0000
0001
2000
0000
0000
0000
3000
0000
0000
0000
0001
0000
0100
0010
,
0000
0100
0001
0000
0010
0000
0100
0000
1000
0000
0100
0000
0010
0000
0001
0000
,
0011
0010
0100
1000
0001
0100
0010
1010
,
1000
0001
0100
0001
1000
0010
0110
0010
,
0100
0010
0001
0100
1000
1100
0100
0010
,
0001
0000
0100
0000
1000
0000
0000
0010
1000
0000
1000
0000
0001
0100
0001
0100
,
0001
0000
0000
0000
0010
0100
0010
0000
0000
0202
0000
0000
0300
0000
0000
0000
,
1003
0000
0001
0000
1010
0000
0000
1001
0000
0000
0101
0000
0000
0000
0001
0000
,
1000
0000
1100
0000
0000
0110
0000
0000
0012
0000
0100
0000
0103
0000
0000
0001
,
0010
0000
0010
0000
0001
1000
0001
1000
0001
0000
0000
0000
0100
1000
0100
0000
,
0000
1100
0000
0000
0010
0000
1000
0000
0001
0000
0001
0000
0101
0000
0000
0011
,
0000
0000
1010
0000
0000
0110
0000
0000
1001
0000
0000
0100
0000
0000
0010
0000
,
1000
0000
1000
0000
1000
0000
0000
0010
0100
0000
0100
0000
0010
1000
0010
1000
,
0010
0000
0000
0000
1000
0001
2000
0000
0000
3002
0000
0000
0103
0000
0010
0000
,
0100
0000
0001
0000
0110
0000
0000
1001
0000
0000
1100
0000
0000
0000
0100
0000
,
0010
0000
0011
0000
0000
0101
0000
0000
1020
0000
0100
0000
0130
0000
0000
0010
,
1000
0000
1000
0000
0100
0010
0100
0010
0100
0000
0000
0000
0010
0001
0020
0000
,
0000
0230
0000
0000
1300
0000
0100
0000
0010
0000
0001
0000
1001
0000
0000
1010
,
0000
0000
1100
0000
0000
0110
0000
0000
0011
0000
0000
0102
0000
0000
0203
0000
,
0000
0320
0000
0000
1030
0000
0000
0000
0120
0000
0000
0000
1000
0000
0000
0000
,
0031
0000
0000
0100
0010
0100
0020
0000
0000
1030
0000
0000
,
2100
3001
1010
1001
,
0101
0000
0000
0000
0011
0000
0000
0000
0002
0000
0000
0000
0003
0000
0100
0010
,
0200
0000
0000
0000
0301
0000
0000
0001
2000
0000
0000
0000
3100
0000
0000
0000
,
1000
0000
0001
0000
0100
0000
0010
0000
2000
0000
0000
3200
0000
0000
0320
0000
,
0000
0000
0130
1000
2000
0000
3020
0000
,
0230
0000
0000
0000
0302
0000
0000
0000
0013
0000
0000
0010
0001
0000
0000
0001
,
1000
0000
0000
1000
0200
0000
0000
0000
1300
0000
0100
0000
0010
0000
0012
0000
,
0000
0000
0103
0201
0000
0310
1000
0001
,
1000
0100
0000
1000
0000
0001
0010
0000
0001
0000
0100
0000
0010
0000
2010
0000
,
0000
0000
3100
1200
0000
1300
0001
0100
,
0010
0100
0000
0010
0000
1000
0200
0000
0000
0000
1000
0000
1000
0000
1300
0000
,
0100
0000
0010
0000
0110
0000
2002
0000
0000
0003
0000
0000
0100
0000
3100
0000
,
1000
0010
0000
0100
0000
0001
0100
0000
0001
0000
0010
0000
0200
0000
2000
0000
,
0000
0000
0000
0000
3300
0000
1000
0100
1000
0000
0010
0000
0100
0001
0100
0001
,
0020
0000
0000
0000
0030
0000
0000
0010
0001
0000
1000
0000
0010
1000
0010
1000
,
0100
0000
0000
0100
0010
0000
0001
0000
1000
0001
1000
0001
0200
0000
0000
0000
,
0000
0310
0100
0000
0001
1000
0001
2000
0000
0000
0000
0000
3100
0000
0000
0000
,
0002
0013
0200
0301
,
0020
0000
1030
0000
0100
1100
1100
0000
,
0011
0000
0000
0101
0000
0000
1001
0000
0000
0000
0011
0000
0011
0000
0000
0000
,
1010
0000
0000
1100
0000
0000
0110
0000
0000
0000
1001
0000
1001
0000
0000
0000
,
0110
0000
0000
0101
0000
0000
1100
0000
1000
0000
0100
0000
0010
0000
0000
0000
,
1010
0000
0000
0011
0000
0000
1001
0000
0010
0000
0110
0000
0110
0000
0000
0000
,
1010
0000
0000
0110
0000
0000
0101
0000
0000
0000
0101
0000
0101
0000
0000
0000
,
1100
0000
0000
1001
0000
0000
0011
0000
0000
0000
1010
0000
1010
0000
0000
0000
,
0011
0000
0000
0101
0000
0000
1010
0000
0010
0000
0100
0000
0001
0000
0000
0000
,
1001
0000
0000
1100
0000
0000
0110
0000
0000
0001
0000
0000
0101
0000
0000
1000
,
0000
0000
1100
0000
0000
0010
0000
0000
0011
0000
0000
0100
0000
0000
1010
0000
,
0000
1001
0000
0000
0010
0100
0010
0200
0000
0000
0302
0000
0000
2003
0000
0000
,
0000
3020
0000
0000
0130
0000
0000
0220
0000
0000
0000
0000
0000
0000
0000
0000
,
0000
0000
0000
0000
0000
0000
0000
0000
0000
0000
0000
0000
0330
0000
0000
0010
,
1000
0000
0100
0000
1000
0000
0001
0010
0000
0001
0100
0010
0100
0000
0000
0000
;

//---------------dance-single - X Scale 9----------------
#NOTEDATA:;
#CHARTNAME:;
#STEPSTYPE:dance-single;
#DESCRIPTION:X Scale 9;
#CHARTSTYLE:;
#DIFFICULTY:Medium;
#METER:9;
#RADARVALUES:0.427768,0.509172,0.413017,0.473249,0.219415,348.000000,300.000000,48.000000,55.000000,0.000000,0.000000,0.000000,0.000000,0.000000,0.427768,0.509172,0.413017,0.473249,0.219415,348.000000,300.000000,48.000000,55.000000,0.000000,0.000000,0.000000,0.000000,0.000000;
#CREDIT:;
#DISPLAYBPM:136.000000;
#NOTES:
0000
0000
0000
0000
,
0000
0000
0000
0000
,
0000
0000
0000
0000
,
0000
0000
0001
0000
0000
1000
0000
0000
0000
0010
0000
0000
0100
0000
0000
2002
,
0000
0000
0000
3003
,
0000
0000
1000
0000
0000
0010
0000
0000
0000
0100
0000
0000
0001
0000
0000
0220
,
0000
0000
0000
0000
,
0000
0000
0000
0000
0330
0000
0000
0000
0101
0000
0000
1100
0000
0000
0000
0000
,
0002
0000
0000
2003
0000
0000
0200
0000
0000
0000
0000
0000
0000
0000
0000
0000
,
0000
0000
0000
0000
3300
0000
0000
0000
0000
1010
0000
0000
0011
0000
0000
0000
,
0002
0000
0000
0203
0000
0000
0020
0000
0000
0000
0000
0000
0000
0000
0000
0000
,
0000
0330
2002
3003
,
1000
0000
0000
0100
0000
0000
0002
0000
0000
0000
0003
0000
0000
0000
0010
0000
,
0000
0100
0000
0000
2000
0000
0000
0000
3000
0000
0000
0000
1000
0000
0000
0001
,
0000
0100
0010
0100
0000
0101
0000
0100
,
0010
0000
1000
0000
0100
0000
0000
0000
1000
0000
0000
1000
0000
0000
1000
0000
,
0010
0000
0100
0000
0000
0000
0001
0000
0000
0001
0000
0000
0001
0000
1000
0000
,
0010
0000
0000
0000
0100
0000
0000
0100
0000
0000
0100
0000
0001
0000
1000
0000
,
0000
0000
0010
0000
0000
0010
0000
0000
0010
0000
0100
0000
0001
0000
0100
0000
,
0010
0000
0000
0000
1000
0000
1100
0000
0000
0011
0000
0000
0100
0000
0000
0000
,
0010
0000
1000
0000
0001
0000
0000
1010
0000
0000
0010
0000
0000
0000
1000
0000
,
0100
0000
1000
0000
0000
0010
0000
0000
0210
0000
0000
0000
0301
0000
0000
0000
,
0001
1000
0010
1000
0001
0000
0100
0110
,
0000
1001
0000
0000
0100
0000
0000
0000
0001
0000
1000
0000
1100
0000
0000
0001
,
0000
0000
0101
0000
0000
0100
0000
0000
1010
0000
0000
1000
0000
0000
0011
0000
,
0000
0010
0000
0000
0100
0000
0000
0000
1000
0000
0100
0000
0001
0000
0100
0000
,
1000
0000
0000
0000
0010
0000
1010
0000
0000
0101
0000
0000
0001
0000
0000
0000
,
1000
0000
0100
0000
1000
0000
0000
1001
0000
0000
0011
0000
0000
0000
0001
0000
,
0100
0000
1000
0000
0000
1100
0000
0000
0210
0000
0000
0000
0301
0000
0000
0000
,
0010
0100
1000
0100
0010
0000
0001
0101
,
0000
0110
0000
0000
0010
0000
0000
0000
0100
0000
0010
0000
1000
0000
0000
0001
,
0000
0000
1100
0000
0000
0000
0100
0000
0000
0010
0000
0000
1010
0000
0000
0000
,
1000
0100
0001
0000
1002
0000
0100
0000
,
1003
0000
0000
0001
0100
0001
0200
0000
0000
0301
0000
0000
,
0021
0130
2000
3020
,
0230
0000
0302
0000
0023
0000
0030
0001
,
2000
3100
1002
0103
,
0001
0000
0010
0000
0100
0000
1000
0000
0200
0000
0000
0320
0000
0000
0032
0000
,
0000
0000
0003
0001
0200
0000
0320
0000
,
2030
3002
2003
3100
,
1100
0000
0101
0000
0010
0100
0010
2000
,
0000
0000
0001
3002
0000
0000
0103
0010
,
1000
0100
0001
0000
1000
0001
1000
0200
,
0000
0000
0010
0320
0000
0000
0031
0100
,
1000
0010
0100
0010
0000
1000
1010
0000
,
0001
0100
0001
0021
0000
0000
0031
1000
,
0100
0010
0001
0000
0010
0100
0010
0110
,
0000
0000
0000
0000
0000
0000
1000
0100
1000
0000
0010
0000
0100
0000
0001
0000
,
0202
0000
0303
0000
0001
0010
0100
1000
,
1010
0000
0100
0010
1000
0001
0011
0000
,
0100
0100
0100
0000
2100
0000
3001
0000
,
0120
0130
2001
0100
,
0010
0000
3001
0000
1000
0100
0100
0000
,
0010
0000
0000
0001
0000
0000
0100
0000
0000
0000
0010
0000
0010
0000
0000
0000
,
0100
0000
0000
0001
0000
0000
1000
0000
0000
0000
1000
0000
1000
0000
0000
0000
,
0001
0000
0000
1000
0000
0000
0010
0000
0000
0000
0001
0000
0001
0000
0000
0000
,
0010
0000
0000
0100
0000
0000
1000
0000
0100
0000
0010
0000
0010
0000
0000
0000
,
1000
0000
0000
0100
0000
0000
0001
0000
0000
0000
0100
0000
0100
0000
0000
0000
,
0001
0000
0000
0010
0000
0000
0100
0000
0000
0000
0001
0000
0001
0000
0000
0000
,
0100
0000
0000
1000
0000
0000
0010
0000
0000
0000
1000
0000
1000
0000
0000
0000
,
1000
0000
0000
0010
0000
0000
0001
0000
0000
0200
0000
0000
0320
0000
0000
2030
,
0000
0000
3002
0000
0000
2003
0000
0000
3200
0000
0000
0320
0000
0000
0032
0000
,
0000
0203
0000
0000
0301
0000
0000
0000
0000
0000
0011
0000
0000
0101
0000
0000
,
0000
1001
0000
0000
1010
0000
0000
2200
0000
0000
0000
0000
0000
0000
0000
0000
,
0000
0000
0000
3300
,
1000
0100
0010
0001
0100
0010
0110
0000
;

//---------------dance-single - X Scale 7----------------
#NOTEDATA:;
#CHARTNAME:;
#STEPSTYPE:dance-single;
#DESCRIPTION:X Scale 7;
#CHARTSTYLE:;
#DIFFICULTY:Easy;
#METER:7;
#RADARVALUES:0.308533,0.367736,0.378599,0.413017,0.120463,251.000000,207.000000,44.000000,48.000000,0.000000,0.000000,0.000000,0.000000,0.000000,0.308533,0.367736,0.378599,0.413017,0.120463,251.000000,207.000000,44.000000,48.000000,0.000000,0.000000,0.000000,0.000000,0.000000;
#CREDIT:;
#DISPLAYBPM:136.000000;
#NOTES:
0000
0000
0000
0000
,
0000
0000
0000
0000
,
0000
0000
0000
0000
,
0000
0000
0000
0000
0000
0001
0000
0000
0000
1100
0000
0000
1100
0000
0000
2200
,
0000
0000
0000
3300
,
0000
0000
0000
0000
0000
1000
0000
0000
0000
0101
0000
0000
0101
0000
0000
0202
,
0000
0000
0000
0000
,
0000
0000
0000
0000
0303
0000
0000
0000
0000
0000
0000
0010
0000
0000
0000
0000
,
0110
0000
0000
0110
0000
0000
0220
0000
0000
0000
0000
0000
0000
0000
0000
0000
,
0000
0330
0000
0100
,
1001
0000
0000
1001
0000
0000
2002
0000
0000
0000
0000
0000
0000
0000
0000
0000
,
0000
3003
0020
0030
,
2000
0000
0000
3000
0000
0000
0002
0000
0000
0000
0003
0000
0000
0000
0200
0000
,
0000
0300
0000
0000
0002
0000
0000
0000
0003
0000
0000
0000
0020
0000
0000
0030
,
0000
2000
0000
3001
0000
0200
0000
0310
,
0100
0000
0010
0000
1000
0000
0001
1000
,
0000
0100
0000
0010
0000
0001
0010
0000
,
1000
0000
0001
0000
0100
0001
0000
1000
,
0000
0100
0000
0010
0001
0000
0100
0000
,
1000
0000
0000
0000
0000
0000
0010
0000
0000
0020
0000
0000
0000
0030
0000
0000
,
0010
0000
0000
0000
0001
0000
0000
1000
0000
0000
1001
0000
0000
0000
0100
0000
,
0000
0000
0010
0000
0000
0100
0000
0000
0110
0000
0000
0000
0000
0000
0000
0000
,
1000
0000
0010
0000
0001
0000
0000
0100
,
0000
0200
0000
0000
0000
0300
0000
0000
0100
0000
0000
0000
0001
0000
0000
0100
,
0000
0000
0101
0000
0000
0000
1000
0000
0000
0100
0000
0000
1100
0000
0000
0000
,
0010
0010
1000
0100
,
0010
0000
0000
0000
0000
0000
0001
0000
0000
0002
0000
0000
0000
0003
0000
0000
,
0001
0000
0000
0000
0010
0000
0000
0001
0000
0000
0101
0000
0000
0000
1000
0000
,
0000
0000
1000
0000
0000
0100
0000
0000
1001
0000
0000
0000
0000
0000
0000
0000
,
0010
0000
0100
0000
0001
0000
0000
1000
,
0000
2000
0000
0000
0000
3000
0000
0000
1000
0000
0000
0000
0010
0000
0000
0100
,
0000
0000
0110
0000
0000
0000
1000
0000
0000
0001
0000
0000
1100
0000
0000
0000
,
1000
0001
1002
0010
,
0000
0013
0202
0303
,
2200
3300
0010
0100
,
0001
1000
2200
3300
,
1000
0001
0202
0303
,
0100
0000
0000
0000
0010
0000
0000
0000
0110
0000
0000
1001
0000
0000
0220
0000
,
0000
0330
0010
0010
,
0100
0100
1000
0001
,
1000
0000
0001
0000
0010
0000
0000
0202
,
0000
0303
0000
1100
0000
0000
0100
0000
,
1000
0000
0001
0000
0100
0000
0000
0220
,
0000
0330
0000
1001
0000
0000
0001
0000
,
0010
0000
1000
0000
0000
0010
0100
0010
,
0100
0000
0000
1001
0000
0000
0001
0000
,
1000
0000
0001
0000
0101
0000
0000
0110
,
0000
0000
1000
0001
1000
0000
0100
0000
,
2200
3300
0010
0100
,
0001
1000
0100
0010
,
0001
1000
2200
3300
,
2002
3003
0202
0000
,
0000
0303
0010
0100
,
0001
1000
0100
0010
,
1000
0001
1000
0010
,
0001
0100
0001
0010
,
0100
1000
0001
0100
,
0010
1000
0100
0010
,
1000
0001
0010
0001
,
1000
0100
1000
0001
,
0100
0000
0000
0000
0010
0000
0000
0000
0000
0020
0000
0000
0030
0000
0000
0200
,
0000
0000
0000
0300
0000
0002
0000
0000
0003
0000
1000
0000
0000
0000
0100
0000
,
0000
0000
0010
0000
0000
0000
0001
0000
0000
0000
0000
0000
0000
0110
0000
0000
,
0000
1100
0000
0000
0101
0000
0000
2002
0000
0000
0000
0000
0000
0000
0000
0000
,
0000
0000
0000
3003
,
0100
0100
0100
0110
;

//---------------dance-single - X Scale 3----------------
#NOTEDATA:;
#CHARTNAME:;
#STEPSTYPE:dance-single;
#DESCRIPTION:X Scale 3;
#CHARTSTYLE:;
#DIFFICULTY:Beginner;
#METER:3;
#RADARVALUES:0.145048,0.198011,0.068836,0.120463,0.025814,118.000000,110.000000,8.000000,14.000000,0.000000,0.000000,0.000000,0.000000,0.000000,0.145048,0.198011,0.068836,0.120463,0.025814,118.000000,110.000000,8.000000,14.000000,0.000000,0.000000,0.000000,0.000000,0.000000;
#CREDIT:;
#DISPLAYBPM:136.000000;
#NOTES:
0000
0000
0000
0000
,
0000
0000
0000
0000
,
0000
0000
0000
0000
,
0000
0000
0000
0000
0000
0000
0000
0000
0000
0000
0000
0000
0000
0000
0000
0020
,
0000
0000
0000
0000
0000
0000
0000
0000
0000
0000
0000
0000
0000
0000
0000
0030
,
0000
0000
0000
0000
0000
0000
0000
0000
0000
0000
0000
0000
0000
0000
0000
0200
,
0000
0000
0000
0000
,
0000
0300
0000
0000
,
0000
0000
0000
0002
0000
0000
0000
0000
,
0000
0000
0000
0003
0000
0000
0000
0000
,
0000
0000
0000
2000
0000
0000
0000
0000
,
3000
0000
1001
0000
,
0000
0000
0000
0100
0000
0000
0000
0000
,
0000
0001
0000
0000
,
0000
1000
0000
0000
0000
0001
0000
0000
,
0110
0000
0000
0000
0100
0000
0000
0010
,
0000
0000
0000
1000
0000
0000
0001
0000
,
0000
0000
0010
0000
0000
0100
0000
0000
,
0000
1000
0000
0000
0010
0000
0010
0000
,
0010
0000
0000
0200
0000
0000
0000
0300
,
0000
0000
0001
0000
0000
1000
0000
0000
,
0000
0010
0000
0000
0100
0000
0000
0000
,
0001
0000
0001
0000
0001
0000
0000
2000
,
0000
0000
0000
3000
0000
0000
0001
0000
,
0000
1000
0000
0000
0000
0000
0010
0000
,
0000
0100
0000
0000
1000
0000
1000
0000
,
1000
0000
0000
0002
0000
0000
0000
0003
,
0000
0000
0100
0000
0000
0010
0000
0000
,
0000
1000
0000
0000
0001
0000
0000
0000
,
0100
0000
0100
0000
0100
0000
0000
0020
,
0000
0000
0000
0030
0000
0000
0001
0000
,
0000
1000
0000
0000
0000
0010
0000
0000
,
0100
0000
2002
0000
,
3003
0000
0010
0000
,
0100
0000
0001
0000
,
1000
0000
0010
0000
,
0100
0000
0110
0000
,
1000
0000
0002
0000
,
0003
0000
1000
1000
,
1000
0000
0001
0001
,
0001
0000
0100
0000
,
0010
0000
1000
0000
,
0001
0000
1000
0000
,
0100
0000
0010
0000
,
0001
0000
0000
0100
,
0100
0000
0010
0000
,
1000
0000
0001
0001
,
0000
0000
1000
1000
,
1000
0000
0110
0000
,
0000
1001
0000
0000
,
1000
0000
0001
0000
,
0001
0000
0002
0000
,
0003
0000
0100
0000
,
0100
0000
0010
0000
,
0010
0000
1000
0000
,
1000
0000
0001
0000
,
0001
0000
1000
0000
,
0001
0000
1000
0000
,
0001
0000
0100
0000
,
0010
0000
0100
0000
,
0010
0000
0000
0000
0000
0000
0000
0000
0000
0010
0000
0000
0000
0000
0000
0100
,
0000
0000
0000
0000
0000
0001
0000
0000
0000
0000
1000
0000
0000
0000
0000
0000
,
0000
0000
0000
0000
,
0000
0000
0000
0000
0000
0220
0000
0000
0000
0000
0000
0000
0000
0000
0000
0000
,
0000
0000
0000
0330
,
0000
0000
0000
1001
;
