#TITLE:CALDERA;
#SUBTITLE:;
#ARTIST:CALF;
#TITLETRANSLIT:;
#SUBTITLETRANSLIT:;
#ARTISTTRANSLIT:;
#GENRE:;
#CREDIT:;
#BANNER:CALDERA-bn.png;
#BACKGROUND:CALDERA-bg.png;
#LYRICSPATH:;
#CDTITLE:;
#MUSIC:CALDERA.ogg;
#OFFSET:0.000000;
#SAMPLESTART:23.714001;
#SAMPLELENGTH:20.000000;
#SELECTABLE:YES;
#DISPLAYBPM:105.000000:240.000000;
#BPMS:0.000000=105.000000
,32.000000=210.000000
,98.000000=105.000000
,114.000000=120.000000
,129.000000=240.000000
,163.000000=210.000000
;
#STOPS:32.000000=5.143000,
163.000000=0.571000
;
#BGCHANGES:;
#KEYSOUNDS:;
#ATTACKS:;

//---------------dance-single - ----------------
#NOTES:
     dance-single:
     :
     Hard:
     13:
     0.709441,0.913323,0.574779,0.252903,0.344867,432.000000,382.000000,50.000000,22.000000,0.000000,0.000000,0.709441,0.913323,0.574779,0.252903,0.344867,432.000000,382.000000,50.000000,22.000000,0.000000,0.000000:
0000
0000
0000
0000
,
0000
0000
0000
0000
,
0000
0000
0000
0000
,
0000
0000
0000
0000
,
1100
0000
1000
0000
1001
0000
0001
0010
0100
1000
0100
0000
0011
0000
0101
0000
,
1001
0000
0010
0000
0110
0000
0100
0001
2000
0000
0000
0000
3020
0000
0130
0000
,
0110
0000
0010
0000
1010
0000
1000
0001
1000
0100
0010
0000
0011
0000
0110
0000
,
1100
0000
1000
0000
1010
0000
0010
0100
0001
0010
0100
1000
0000
0000
0000
0000
,
2002
0003
0000
0000
3010
0000
0000
0000
1010
0000
1000
0000
0100
0000
0010
0000
,
0001
0100
0010
1000
0001
1000
0100
0010
,
0001
0100
0001
1000
0010
1000
0100
0010
,
0001
0100
2000
0000
3010
1000
0100
0000
,
1100
0000
0101
0000
0011
0010
0100
1000
,
0010
1000
0001
0100
0001
0010
0100
1000
,
0010
1000
0001
1000
0100
0010
0001
0100
,
0010
1000
0002
0000
0013
0000
0010
0000
,
0011
0000
1100
0000
1001
0010
1000
0100
,
0010
0100
0010
0001
0100
0001
0010
0100
,
1000
0001
1000
0100
0010
0100
1000
0010
,
0100
0001
2000
0000
3001
0100
1000
0000
,
1010
0000
0110
0000
0101
0010
0100
0001
,
0010
0100
1000
0100
1000
0010
1000
0001
,
0100
0001
1000
0100
0010
0001
0100
0001
,
1000
0100
0020
0000
0031
0000
1000
0000
,
1100
0000
0000
0000
0101
0000
0000
0000
0010
1000
0100
0010
0001
0100
0001
1000
,
0000
1000
0001
0000
0010
0001
0100
0000
0001
1000
0001
0010
0100
1000
0010
0100
,
0000
0010
1000
0000
0001
1000
0100
0000
0010
0001
0100
0001
0010
0100
1000
0100
,
0000
1000
0001
0000
1000
0010
0100
0000
0001
0010
0100
1000
0010
1000
0100
0010
,
0000
0001
0100
0000
0001
1000
0100
0000
2100
0000
0000
3001
0000
0000
0102
0000
,
0000
1003
0000
0010
0100
0000
0000
0000
1020
0000
0000
0130
0000
0000
0201
0000
,
0000
0310
0000
1000
0001
0000
0000
0000
0012
0000
0000
1003
0000
0000
2100
0000
,
0000
3100
0000
0010
0001
0000
0000
0000
2001
0000
0000
3010
0000
0000
0120
0000
,
0000
0000
0000
0130
0000
0000
0000
0000
0000
0000
0000
0000
0001
0000
0000
0000
1000
0000
0000
0000
0001
0000
0000
0000
1000
0000
0000
0000
0001
0000
0000
0000
1000
0000
0000
0000
0001
0000
0000
0000
0000
0000
0000
0000
0000
0000
0000
0000
,
0001
0000
0000
0001
0000
0000
1000
0000
0100
1000
0000
1000
,
0001
0000
0001
0100
0000
0100
0010
0000
0000
1000
0000
0000
,
1000
0000
0000
1000
0000
0000
0010
0000
1000
0100
0000
0100
,
0010
0000
0010
0001
0000
0001
1000
0000
0000
0010
0000
0000
,
0010
0000
0000
0010
0000
0000
0100
0000
0001
1000
0000
1000
,
0001
0000
0001
0100
0000
0100
0001
0000
0000
0100
0000
0000
,
0100
0000
0000
0100
0000
0000
0010
0000
1000
0100
0000
0000
,
0100
0000
0000
0000
1100
0000
0000
0000
0110
0000
0000
0000
2002
0003
0000
0000
,
3010
0000
0110
0100
0001
1000
0100
0010
,
0100
0010
0001
0100
0001
1000
0001
0010
,
0100
1000
0010
1000
0001
1000
0100
0010
,
0002
0000
0103
0001
0010
0000
0110
0000
,
1100
0000
0011
0001
0100
0010
1000
0001
,
1000
0100
0010
0100
1000
0010
1000
0001
,
0100
0010
0001
0010
1000
0100
0010
0001
,
2000
0000
3010
1000
0001
0000
0101
0000
,
0110
0000
1000
0100
0001
0100
0010
0001
,
0010
1000
0100
0001
0100
1000
0010
0001
,
0010
1000
0001
0010
1000
0010
0100
0001
,
0100
1000
0010
1010
0000
1100
0000
0101
,
0000
1100
0000
0011
0000
0101
0000
0110
,
0000
1001
1000
0001
1000
0001
1000
0001
,
1000
0001
0100
0010
0100
0010
0100
0010
,
0100
0020
0200
0000
0000
0000
0330
0000
;

//---------------dance-single - ----------------
#NOTES:
     dance-single:
     :
     Medium:
     10:
     0.533723,0.848086,0.436832,0.459823,0.195425,325.000000,287.000000,38.000000,40.000000,0.000000,0.000000,0.533723,0.848086,0.436832,0.459823,0.195425,325.000000,287.000000,38.000000,40.000000,0.000000,0.000000:
0000
0000
0000
0000
,
0000
0000
0000
0000
,
0000
0000
0000
0000
,
0000
0000
0000
0000
,
1001
0000
0000
0000
0110
0000
0000
0010
1000
0000
0000
0000
0001
0000
0100
0000
,
0101
0000
0000
0000
1100
0000
0000
1000
0002
0000
0000
0000
0103
0000
0010
0000
,
1010
0000
0000
0000
0101
0000
0000
0001
1000
0000
0000
0000
0010
0000
0100
0000
,
0110
0000
0000
0000
0101
0000
0000
0001
1000
0000
0010
0000
0100
0000
0000
0000
,
2002
0003
0000
0000
3010
0000
0000
0000
1001
0000
0000
0000
0001
0000
0000
0000
,
1000
0100
0010
0100
1000
0000
0001
0000
,
0010
0100
1000
0000
0010
0100
0010
0100
,
0000
0220
0330
0000
1020
0000
0001
0000
,
0100
0130
1000
0001
,
0010
0001
0100
0010
1000
0000
0100
0000
,
1000
0001
0010
0000
0001
1000
0001
1000
,
0000
2002
3003
0000
0210
0000
1000
0000
,
0010
0310
0110
0010
,
1000
0001
1000
0010
0100
0000
0001
0000
,
1000
0100
0010
0000
0001
0100
0001
0100
,
0000
0022
0033
0000
2100
0000
0010
0000
,
0001
3001
1000
0010
,
1000
0100
0010
0001
0100
0000
0010
0000
,
0100
0010
1000
0000
0010
1000
0010
1000
,
0000
2200
3300
0000
0001
0100
1000
0000
,
0001
0000
0010
0000
1000
0000
0000
0000
0010
0100
0010
0000
0110
0000
0001
1000
,
0000
1000
0100
0000
0010
0001
1000
0000
0100
1000
0100
0000
1010
0000
0010
0100
,
0000
0001
1000
0000
0001
1000
0010
0000
1000
0001
1000
0000
0101
0000
0010
0100
,
0000
0100
0001
0000
0100
0010
1000
0000
0001
0010
0001
0000
0101
0000
0100
0001
,
0000
1000
0100
0000
1000
0010
1000
0000
2100
0000
0000
0001
0000
0000
0100
0000
,
0000
3001
0000
0000
0000
0000
0000
0000
0102
0000
0000
1000
0000
0000
0010
0000
,
0000
1003
0000
0000
0000
0000
0000
0000
1020
0000
0000
0100
0000
0000
1000
0000
,
0000
0130
0000
0000
0000
0000
0000
0000
0201
0000
0000
0010
0000
0000
0001
0000
,
0000
0310
0000
0000
1001
0000
0000
0000
1001
0000
0000
0000
0010
0000
0000
0000
,
0010
0000
0000
1000
0000
0000
1000
0000
0000
0001
0000
1000
,
0100
0000
0000
1000
0000
0001
0100
0000
0000
0001
0000
0000
,
0001
0000
0000
0010
0000
0000
0010
0000
0000
0100
0000
1000
,
0001
0000
0000
0100
0000
0001
1000
0000
0000
0100
0000
0000
,
0100
0000
0000
1000
0000
0000
1000
0000
0000
0010
0000
1000
,
0001
0000
0000
1000
0000
0100
0010
0000
0000
0001
0000
0000
,
0001
0100
0100
1001
,
0110
0000
0000
0000
1001
0000
0000
0000
0110
0000
0000
0000
2002
0003
0000
0000
,
3010
0000
1001
0000
0100
0000
0001
1000
,
0001
1000
0010
0000
0100
0000
0001
0010
,
0100
0000
1000
0100
1000
0100
0000
2020
,
3030
0000
0001
0100
0010
0000
2001
0000
,
0001
0000
3100
0000
1000
0000
0010
0100
,
0001
1000
0100
0000
1000
0000
0010
1000
,
0001
0000
0001
0010
0001
0010
0000
0202
,
0303
0120
0100
1000
,
0130
0000
0001
0002
0000
2003
0000
3020
,
0000
0230
0000
0302
0000
0023
0000
0230
,
0000
2300
0000
3020
0000
0230
0000
0302
,
0000
2003
0000
0100
0000
0100
0000
0100
,
0000
0100
0000
0100
0000
0100
0000
0100
,
0000
3100
1000
0001
1000
0000
0001
1000
,
0001
0000
0100
0010
0100
0010
0100
0010
,
0100
0020
0200
0000
0000
0000
0330
0000
;

//---------------dance-single - ----------------
#NOTES:
     dance-single:
     :
     Easy:
     7:
     0.326803,0.456662,0.229911,0.137947,0.000000,199.000000,179.000000,20.000000,12.000000,0.000000,0.000000,0.326803,0.456662,0.229911,0.137947,0.000000,199.000000,179.000000,20.000000,12.000000,0.000000,0.000000:
0000
0000
0000
0000
,
0000
0000
0000
0000
,
0000
0000
0000
0000
,
0000
0000
0000
0000
,
0010
0100
0010
1000
,
0001
0001
1000
1010
,
0001
0100
1000
0010
,
0100
0100
0010
0000
,
1001
0010
1001
0000
,
0010
1000
0001
0000
,
1000
0100
1000
1000
,
0001
0001
0200
0000
,
0010
0310
0110
0000
,
0100
0001
1000
0000
,
0010
1000
0010
0010
,
0100
0100
0002
1000
,
1000
0103
0101
0000
,
0010
1000
0100
0000
,
1000
0001
0010
0010
,
0001
0001
2000
0000
,
0001
3001
1010
0000
,
0010
1000
0100
0000
,
0010
0001
0100
0100
,
0001
0001
2000
0010
,
0001
3001
0010
0110
,
0001
0100
1000
0000
0100
0000
1001
0000
,
0010
1000
0001
0000
1000
0000
1100
0000
,
0010
0100
0001
0000
0010
0000
0101
0000
,
1000
0100
0001
0000
2000
0000
0000
3001
,
0000
0000
0000
0000
0002
0000
0000
0103
,
0000
0000
0000
0000
0200
0000
0000
0310
,
0000
0000
0000
0000
0020
0000
0000
1030
,
0000
0002
0000
0103
,
0001
0100
0001
1000
,
1000
0100
0000
1000
,
0010
1000
0010
0100
,
0100
0010
0000
0100
,
0010
0100
0010
1000
,
1000
0100
0000
1000
,
0001
0010
0001
0100
,
0100
1000
0000
1001
,
0010
0110
0000
0010
,
1000
0100
0000
0100
,
0010
0001
0001
1000
,
1000
0200
0000
1000
,
1300
1010
0000
0010
,
1000
0001
0000
0100
,
0010
0100
0100
0001
,
0001
2000
0100
0010
,
3001
0100
0101
0100
,
0101
1000
1100
1000
,
1100
0010
0110
0010
,
0110
1001
0000
0000
,
0000
0000
0000
0000
,
0000
1000
0001
1000
,
0001
0100
0010
0100
,
0010
0200
0000
0300
;

//---------------dance-single - ----------------
#NOTES:
     dance-single:
     :
     Beginner:
     2:
     0.147800,0.228331,0.114956,0.011496,0.000000,90.000000,80.000000,10.000000,1.000000,0.000000,0.000000,0.147800,0.228331,0.114956,0.011496,0.000000,90.000000,80.000000,10.000000,1.000000,0.000000,0.000000:
// measure 0
0000
0000
0000
0000
,  // measure 1
0000
0000
0000
0000
,  // measure 2
0000
0000
0000
0000
,  // measure 3
0000
0000
0000
0000
,  // measure 4
0001
0000
0001
0000
,  // measure 5
1000
0000
1000
0000
,  // measure 6
0010
0000
0010
0000
,  // measure 7
0100
0000
0100
0000
,  // measure 8
1001
0000
1001
0000
,  // measure 9
0000
0000
0010
0000
,  // measure 10
0000
0000
1000
1000
,  // measure 11
0000
0000
0001
0000
,  // measure 12
0100
0000
0110
0000
,  // measure 13
0000
0000
0100
0000
,  // measure 14
0000
0000
0001
0001
,  // measure 15
0000
0000
1000
0000
,  // measure 16
1000
0000
0010
0000
,  // measure 17
0000
0000
0100
0000
,  // measure 18
0000
0000
0010
0010
,  // measure 19
0000
0000
1000
0000
,  // measure 20
0001
0000
1000
0000
,  // measure 21
0000
0000
0100
0000
,  // measure 22
0000
0000
1000
1000
,  // measure 23
0000
0000
0010
0010
,  // measure 24
0010
0000
1000
1000
,  // measure 25
0000
0000
0100
0100
,  // measure 26
0000
0000
0010
0010
,  // measure 27
0000
0000
0001
0001
,  // measure 28
0000
0000
0110
0000
,  // measure 29
0000
0000
0110
0000
,  // measure 30
0000
0000
1001
0000
,  // measure 31
0000
0000
1001
0000
,  // measure 32
0000
0010
0000
0010
,  // measure 33
0000
0000
0000
0100
,  // measure 34
0000
0000
0000
0001
,  // measure 35
0000
0000
0000
1000
,  // measure 36
0000
0000
0000
0100
,  // measure 37
0000
0000
0000
1000
,  // measure 38
0000
0000
0000
0010
,  // measure 39
0000
0000
0000
0001
,  // measure 40
0000
0000
0000
1001
,  // measure 41
0000
1001
0000
0000
,  // measure 42
0000
0100
0000
0000
,  // measure 43
0000
0010
0010
0000
,  // measure 44
0000
0001
0000
1000
,  // measure 45
0000
1001
0000
0000
,  // measure 46
0000
1000
0000
0000
,  // measure 47
0000
0100
0100
0000
,  // measure 48
0000
0001
0001
0001
,  // measure 49
0000
1000
0000
1000
,  // measure 50
0000
0001
0000
0001
,  // measure 51
0000
0100
0000
0100
,  // measure 52
0000
0000
0000
0000
,  // measure 53
0000
0000
0000
0000
,  // measure 54
0000
1000
0000
1000
,  // measure 55
0000
0001
0000
0001
,  // measure 56
0000
0200
0000
0300
;
