#TITLE:Balance of Astraia;
#SUBTITLE:;
#ARTIST:ZODIACSYNDICATE;
#TITLETRANSLIT:;
#SUBTITLETRANSLIT:;
#ARTISTTRANSLIT:;
#GENRE:;
#CREDIT:;
#BANNER:Balance of Astraia-bn.png;
#BACKGROUND:Balance of Astraia-bg.png;
#LYRICSPATH:;
#CDTITLE:;
#MUSIC:Balance of Astraia.ogg;
#OFFSET:0.000000;
#SAMPLESTART:35.896000;
#SAMPLELENGTH:20.000000;
#SELECTABLE:YES;
#DISPLAYBPM:87.000000:346.000000;
#BPMS:0.000000=86.500000
,8.000000=173.000000
,58.000000=86.500000
,68.000000=346.000000
,228.000000=173.000000
,284.000000=86.500000
,300.000000=346.000000
;
#STOPS:7.750000=0.520000
;
#BGCHANGES:;
#KEYSOUNDS:;
#ATTACKS:;

//---------------dance-single - ----------------
#NOTES:
     dance-single:
     :
     Hard:
     17:
     1.009166,1.740010,0.735000,0.661500,0.428750,865.000000,775.000000,90.000000,81.000000,0.000000,0.000000,1.009166,1.740010,0.735000,0.661500,0.428750,865.000000,775.000000,90.000000,81.000000,0.000000,0.000000:
// measure 0
0000
0000
0000
0000
,  // measure 1
0000
0000
0000
0000
,  // measure 2
0010
1000
0100
0001
1000
0010
0100
0001
,  // measure 3
0010
0001
1000
0100
0010
0100
1000
0001
,  // measure 4
0100
0001
0010
0001
1000
0010
0100
1000
,  // measure 5
0100
0001
0010
0001
0100
0001
1000
0001
,  // measure 6
1000
0100
1000
0000
0001
0100
0001
0000
0010
0001
0100
0000
0001
1000
0000
1000
,  // measure 7
0010
1000
0100
0000
0010
0001
0000
0100
0001
1000
0100
0000
1000
0010
0000
1000
,  // measure 8
0100
0010
0001
0000
1000
0010
0000
0100
0001
1000
0100
0000
0010
0001
0000
0100
,  // measure 9
0001
0010
0001
0000
0100
0001
0000
1000
0100
0010
0100
0000
1000
0001
0000
0001
,  // measure 10
0010
0001
0010
0001
0100
0010
1000
0000
0010
0100
0000
0101
0000
0101
0000
1100
,  // measure 11
0000
1100
0000
1000
0001
0100
0001
0000
0010
0001
0000
0011
0000
0011
0000
1010
,  // measure 12
0000
1010
0000
1000
0010
1000
0100
0000
0010
0100
0000
1100
0000
0011
0000
0101
,  // measure 13
0000
1010
0000
0001
0010
0100
1000
0000
0010
0100
0000
0110
0000
0110
0000
1001
,  // measure 14
0000
0000
0000
1001
0000
0000
0000
0000
0000
0001
0000
0000
1000
0000
0000
0000
0100
0000
0000
0000
0010
0000
0000
0000
2002
0000
0000
0000
0000
0000
0000
0000
0000
3000
0000
0000
0200
0000
0000
0003
0000
0000
0020
0000
0000
0300
0000
0000
,  // measure 15
2000
0030
0002
3000
0020
0003
0002
0030
0200
0003
0020
0300
2000
0030
0002
3000
,  // measure 16
0200
0000
0000
0003
0020
0000
0000
0330
2020
0000
0000
3030
0202
0000
0000
0303
,  // measure 17
1001
0000
0100
0000
0010
1000
0010
0100
,  // measure 18
0001
0010
0001
0000
1000
0001
1000
0100
,  // measure 19
0010
0100
1000
0000
0010
1000
0001
0100
,  // measure 20
0001
0010
0100
1000
0001
0100
0010
1000
,  // measure 21
0001
1000
0100
0000
1000
0010
0100
0001
,  // measure 22
0010
0100
1000
0000
0010
1000
0001
0100
,  // measure 23
0001
0010
0001
0000
0100
0001
1000
0100
,  // measure 24
1000
0010
0100
0001
1000
0100
0010
0001
,  // measure 25
0200
0000
0010
0000
0010
0000
0301
1000
,  // measure 26
0001
0011
1100
1010
,  // measure 27
2001
0000
0100
0000
0100
0000
3010
1000
,  // measure 28
0001
0101
0110
1010
,  // measure 29
1002
0000
0010
0000
0100
0000
1003
0001
,  // measure 30
0200
0000
1000
0000
0301
0000
0100
0001
,  // measure 31
0020
0000
0100
0000
0031
0000
1000
0010
,  // measure 32
2000
3001
0101
0101
,  // measure 33
1002
0000
0010
0000
1000
0000
0103
0001
,  // measure 34
0020
0000
0100
0000
0001
0000
0130
0010
,  // measure 35
0002
0000
1000
0000
0100
0000
1003
0010
,  // measure 36
0100
0110
1010
1100
,  // measure 37
0102
0000
0010
0000
1000
0000
0103
0010
,  // measure 38
2000
0000
0100
0000
3001
0000
1000
0001
,  // measure 39
0020
0000
0031
1000
0010
1000
0001
0000
,  // measure 40
0010
1000
0100
0010
0001
0100
1000
0000
,  // measure 41
0010
1000
0000
1000
0010
0000
0100
0001
,  // measure 42
0000
0001
0010
0001
1000
0100
1000
0000
,  // measure 43
0010
1000
0000
1000
0100
0000
1000
0001
,  // measure 44
0000
0001
0010
0100
1000
0010
0100
0000
,  // measure 45
0010
0100
0000
0001
0010
0000
0001
1000
,  // measure 46
0000
1000
0100
0001
1000
0010
0001
0000
,  // measure 47
0100
0001
0000
1000
0100
0000
1000
0001
,  // measure 48
0000
0010
0001
0100
0001
0100
0001
0000
,  // measure 49
1000
0010
0000
0010
0100
0000
0101
0000
,  // measure 50
0001
0100
1000
0000
1010
0000
1010
0000
,  // measure 51
0010
0100
0000
0001
1000
0000
0110
0000
,  // measure 52
0010
1000
0100
0000
0011
0000
0011
0000
,  // measure 53
1001
0000
1000
0001
0100
0010
0100
0000
,  // measure 54
0001
0010
0100
1000
0010
1000
0100
0000
,  // measure 55
0010
0001
0000
0010
0001
0000
0010
0001
,  // measure 56
0000
1000
0100
0001
1000
0010
0001
0000
,  // measure 57
1002
0100
1000
0100
,  // measure 58
0023
0000
0001
0000
0100
0000
1000
1000
,  // measure 59
0032
0100
0010
1000
,  // measure 60
0203
0000
1000
0000
0010
0000
0001
0001
,  // measure 61
0320
0100
0001
1000
,  // measure 62
0230
0000
0010
0000
1000
0000
0001
0001
,  // measure 63
0302
0010
2003
3100
,  // measure 64
1010
0000
0000
0101
0000
0000
0011
0000
0000
1100
0000
0000
1001
0000
0110
0000
,  // measure 65
2002
0000
3003
0202
0000
0303
0220
0330
,  // measure 66
0010
1000
0000
0000
1000
0100
0000
0000
0100
0001
0000
0000
0001
0010
0000
0000
,  // measure 67
2020
0000
3030
0202
0000
0303
0022
0033
,  // measure 68
0100
0001
0100
0000
0001
0010
0001
0000
0010
1000
0010
0000
1000
0100
1000
0000
,  // measure 69
0220
0000
0000
0000
0330
0000
1000
0001
2000
0000
0000
0000
3000
0000
0010
0100
,  // measure 70
0001
0010
1000
0001
0100
1000
0001
0010
1000
0001
0100
1000
,  // measure 71
1001
0000
1001
0000
0000
0000
0000
0000
0010
0100
0010
0000
0000
0000
0000
0000
0101
0000
0101
0000
0000
0000
0000
0000
0001
1000
0001
0000
0000
0000
0000
0000
,  // measure 72
1100
0000
1100
0000
0000
0000
0000
0000
0001
0100
0001
0000
0000
0000
0000
0000
0110
0000
0110
0000
0000
0000
0000
0000
0010
1000
0000
0001
0000
1000
0100
0000
,  // measure 73
1001
0000
0000
0000
1000
0100
0000
0010
0001
0000
0000
0000
0001
0010
0000
0100
1000
0000
0000
0000
0010
0100
0000
0001
1000
0000
0000
0000
0010
1000
0000
0001
,  // measure 74
0100
0000
0000
0000
0001
0100
0000
0010
1000
0000
0000
0000
1000
0010
0000
0100
0001
0000
0000
0000
0010
0001
0000
0100
0001
0000
0000
0000
1000
0010
0000
1000
,  // measure 75
0100
1001
0100
1001
,  // measure 76
1000
0101
0001
1100
,  // measure 77
0011
0011
1100
1100
,  // measure 78
0101
0101
1010
1010
,  // measure 79
1001
1001
0010
0100
,  // measure 80
0001
0010
0001
0010
0100
1000
0001
0000
,  // measure 81
1000
0010
0000
0110
0000
0101
0000
0011
,  // measure 82
0000
1100
0000
0001
0010
0100
1000
0000
,  // measure 83
0010
1000
0100
0010
0001
0100
1000
0000
,  // measure 84
0002
0023
0230
2300
,  // measure 85
3010
1000
0100
1000
0001
0100
0010
0000
,  // measure 86
2000
3002
0203
0320
,  // measure 87
1030
0100
1000
0100
0010
0001
0010
0001
,  // measure 88
0100
0001
0100
0001
1000
0010
1000
0010
,  // measure 89
1000
0100
0010
0001
1000
0010
0100
0001
,  // measure 90
0010
0001
0100
0001
1000
0010
1000
0100
,  // measure 91
0010
0001
1000
0001
0100
0010
1000
0000
,  // measure 92
0020
0230
0302
2003
,  // measure 93
3001
1000
0100
0010
0001
1000
0100
0000
,  // measure 94
2000
3020
0230
0302
,  // measure 95
0013
0001
0010
0001
0100
0010
0100
0010
,  // measure 96
1000
0100
1000
0100
1000
0001
1000
0001
,  // measure 97
1000
0010
0100
0001
0010
0100
1000
0001
,  // measure 98
0100
0001
0010
0001
1000
0100
1000
0010
,  // measure 99
0100
0001
0100
0001
0000
0000
0020
0000
,  // measure 100
0000
0032
0000
0000
1000
0000
1003
0000
,  // measure 101
0001
0100
0001
1000
0001
0010
0001
0100
,  // measure 102
0010
1000
0100
1000
0100
0010
0001
0000
,  // measure 103
1000
0001
1000
0001
0000
0000
0200
0000
,  // measure 104
0000
0320
0000
0000
0100
0000
0130
0000
,  // measure 105
0001
0010
0100
1000
0010
0100
0001
0000
,  // measure 106
2002
0003
0200
3300
,  // measure 107
2200
0000
0000
3300
,  // measure 108
0202
0000
0000
0303
,  // measure 109
1000
0001
0100
0010
1000
0100
0001
0000
,  // measure 110
0010
0001
0100
0001
0010
0100
1000
0000
,  // measure 111
0010
1000
0100
1000
0001
1000
0100
0000
,  // measure 112
0010
0001
0100
0010
0100
0010
1000
0000
,  // measure 113
0100
1000
0100
0010
0001
1000
0100
0000
,  // measure 114
1000
0010
1000
0100
1000
0010
0001
0000
,  // measure 115
0100
0010
1000
0100
0010
0001
0100
0000
,  // measure 116
0001
1000
0100
1000
0010
1000
0001
0000
,  // measure 117
1000
0100
0010
0001
0100
0010
1000
0001
,  // measure 118
0100
0010
1000
0001
0010
1000
0100
0001
,  // measure 119
0100
0010
0000
1010
0000
0101
0000
0011
,  // measure 120
0000
1100
0000
0001
1000
0001
0200
0000
,  // measure 121
0000
0000
0000
0300
;
