#VERSION:0.83;
#TITLE:BREEDING;
#SUBTITLE:;
#ARTIST:SLAKE;
#TITLETRANSLIT:;
#SUBTITLETRANSLIT:;
#ARTISTTRANSLIT:;
#GENRE:;
#ORIGIN:;
#CREDIT:;
#BANNER:BREEDING-bn.png;
#BACKGROUND:BREEDING-bg.png;
#PREVIEWVID:;
#JACKET:BREEDING-jacket.png;
#CDIMAGE:;
#DISCIMAGE:;
#LYRICSPATH:;
#CDTITLE:;
#MUSIC:BREEDING.ogg;
#OFFSET:0.000000;
#SAMPLESTART:70.400002;
#SAMPLELENGTH:20.000000;
#SELECTABLE:YES;
#DISPLAYBPM:150.000000;
#BPMS:0.000=150.000;
#STOPS:;
#DELAYS:;
#WARPS:;
#TIMESIGNATURES:0.000=4=4;
#TICKCOUNTS:0.000=4;
#COMBOS:0.000=1;
#SPEEDS:0.000=1.000=0.000=0;
#SCROLLS:0.000=1.000;
#FAKES:;
#LABELS:0.000=Song Start;
#BGCHANGES:;
#KEYSOUNDS:;
#ATTACKS:
;

//---------------dance-single - ----------------
#NOTEDATA:;
#CHARTNAME:;
#STEPSTYPE:dance-single;
#DESCRIPTION:;
#CHARTSTYLE:;
#DIFFICULTY:Hard;
#METER:12;
#RADARVALUES:0.550019,0.581071,0.050883,0.084805,0.449465,454.000000,448.000000,6.000000,10.000000,0.000000,0.000000,0.000000,0.000000,0.000000,0.550019,0.581071,0.050883,0.084805,0.449465,454.000000,448.000000,6.000000,10.000000,0.000000,0.000000,0.000000,0.000000,0.000000;
#CREDIT:;
#DISPLAYBPM:150.000000;
#NOTES:
// measure 0
0000
0000
0000
0000
,  // measure 1
0000
0000
0000
0000
,  // measure 2
1001
1000
0001
1000
,  // measure 3
0001
0000
1000
0000
0001
0000
1000
0100
,  // measure 4
0001
0000
0000
0000
0010
0000
0000
0010
0000
0000
0001
0000
0000
0100
0000
0000
,  // measure 5
1000
0000
0000
0000
0010
0000
0000
0100
0000
0000
0000
0000
0001
0000
1000
0000
,  // measure 6
0100
0010
0001
0100
1000
0000
0001
1000
,  // measure 7
0010
0000
0000
0100
0000
0000
0001
0000
1000
0000
0000
0010
0000
0000
0100
0000
,  // measure 8
0001
0000
0000
0010
0001
0000
0100
0000
1000
0000
0010
0000
0001
0000
0100
0000
,  // measure 9
0100
0000
0000
0010
0000
0000
1000
0000
0001
0000
0000
0010
0000
0000
0100
0000
,  // measure 10
1000
0000
0000
0001
0000
0000
0010
0000
0001
0000
0000
0100
0000
0000
0010
0000
,  // measure 11
1000
0000
0000
1000
0000
0000
0001
0000
1000
0000
0000
0100
0000
0000
0010
0000
,  // measure 12
0110
0000
0000
0001
0100
0000
0001
0000
1000
0000
0000
0010
0100
0000
0010
0000
,  // measure 13
1000
0000
0000
0100
0010
0000
0001
0000
0100
0000
0000
0010
1000
0000
0001
0000
,  // measure 14
0100
0000
0010
0000
0100
0000
0001
0000
1000
0010
1000
0010
0000
0000
0100
0000
,  // measure 15
0100
0000
0000
0001
0000
0000
1000
0000
0001
0000
0000
0010
0000
0000
0100
0000
,  // measure 16
1000
0000
0000
0010
1000
0000
0100
0000
0010
0000
0001
0000
0100
0000
1000
0000
,  // measure 17
1000
0000
0000
0010
0000
0000
0100
0000
0001
0000
0000
0010
0000
0000
0001
0000
,  // measure 18
0100
0000
0010
0000
0100
0000
0001
0000
1000
0010
1000
0010
0000
0000
0100
0000
,  // measure 19
0001
0000
0010
0000
0100
0000
0010
0000
0001
1000
0001
1000
0000
0000
0000
0000
,  // measure 20
0001
0000
0000
0100
0010
0000
1000
0000
0100
0000
0000
0100
0010
0000
0001
0000
,  // measure 21
1000
0000
0000
0001
1000
0000
0010
0000
0100
0000
0000
0100
0010
0000
1000
0000
,  // measure 22
0001
0000
0000
0010
0000
0000
0100
0000
1000
0001
1000
0001
0000
0000
0100
0000
,  // measure 23
0010
1000
0000
0100
0010
0001
0000
0100
,  // measure 24
1001
0000
0000
0100
0010
0000
0000
1000
0000
0000
0000
0001
1000
0000
0100
0000
,  // measure 25
0010
0000
0000
0010
0001
0000
0000
1000
0000
0000
0000
1000
0010
0000
0100
0000
,  // measure 26
0001
0000
0000
0010
0100
0000
0000
1000
0000
0000
0000
0010
0100
0000
0001
0000
,  // measure 27
1000
0000
0000
0001
1000
0000
0000
0010
0000
0000
0000
0010
0100
0000
0001
0000
,  // measure 28
0000
0000
0000
0010
0100
0000
0000
1000
0000
0000
0000
0001
1000
0000
0100
0000
,  // measure 29
0000
0000
0000
1000
0001
0000
0000
0010
0000
0000
0000
0010
0100
0000
1000
0000
,  // measure 30
0000
0000
0000
0001
0100
0000
0000
0001
0000
0000
0000
1000
0100
0000
0010
0000
,  // measure 31
0001
0000
0000
0100
0010
0000
0000
1000
0001
0000
0000
0010
0100
0000
1000
0000
,  // measure 32
0001
0100
2000
0000
0010
0000
0100
0000
,  // measure 33
0000
0000
0001
0000
3001
0000
0000
0010
0000
0000
0001
0000
1000
0000
0000
0000
,  // measure 34
0000
0000
0010
0000
0010
0000
0000
1000
0000
0000
0001
0000
0100
0000
0000
0000
,  // measure 35
0000
0000
0001
0000
0001
0000
0000
0010
0000
0000
0100
0000
1000
0000
0000
0000
,  // measure 36
1000
0100
0002
0000
1003
0100
0002
0000
,  // measure 37
0003
0000
0010
0000
0001
0000
0000
0100
0000
0000
0010
0000
1000
0000
0000
0000
,  // measure 38
0002
0000
0000
0000
0100
0000
0000
0000
1003
0000
0000
0010
0000
0000
0100
0000
,  // measure 39
0000
0001
0000
1000
0000
0001
0000
1000
,  // measure 40
0200
0010
0000
0010
0000
0010
0300
0010
,  // measure 41
0002
0100
0000
0100
0000
0100
0003
0100
,  // measure 42
0020
1000
0000
1000
0000
1000
0030
1000
,  // measure 43
0002
0000
0003
1001
,  // measure 44
0110
0000
0001
0100
0001
0000
1000
0000
0100
0000
0000
0010
0001
0000
0100
0000
,  // measure 45
0010
0000
0000
0010
1000
0000
0000
0000
0001
0000
0000
0001
1000
0000
0100
0000
,  // measure 46
0010
0000
0000
0010
0001
0000
0000
0000
1000
0000
0000
1000
0010
0000
0100
0000
,  // measure 47
0001
0000
0000
0001
1000
0000
0000
0000
0001
0000
0000
0010
0100
0000
1000
0000
,  // measure 48
0010
0000
0000
1000
0100
0000
0000
0000
0100
0000
0000
0010
0001
0000
1000
0000
,  // measure 49
0001
0000
0000
0100
0010
0000
1000
0000
0001
0000
0000
1000
0100
0000
0010
0000
,  // measure 50
0001
0000
0000
0100
0010
0000
0000
1000
0001
0000
0000
1000
0100
0000
0010
0000
,  // measure 51
0001
0100
0000
0001
0100
0000
0010
0000
1000
0000
0000
1000
0001
0000
0100
0000
,  // measure 52
0110
0000
0000
1000
0010
0000
0100
0000
0001
0000
0000
0010
0100
0000
1000
0000
,  // measure 53
0001
0000
0000
0100
0010
0000
0000
1000
0000
0000
0000
0001
0010
0000
0100
0000
,  // measure 54
1000
0000
0000
1000
0001
0000
0000
0001
1000
0000
0000
0010
0100
0000
0001
0000
,  // measure 55
0010
0000
0000
0010
0001
0000
0000
0001
1000
0000
0000
0001
0100
0000
0010
0000
,  // measure 56
1000
0000
0000
0010
1000
0000
0000
0000
0001
0000
0000
0001
0010
0000
0100
0000
,  // measure 57
1000
0000
0000
0010
1000
0000
0000
0000
0100
0000
0000
1000
0001
0000
0100
0000
,  // measure 58
0010
1000
0100
0010
0001
0100
0001
1000
,  // measure 59
0001
0000
0000
0000
0010
0000
0000
0001
0000
0000
0000
0100
0010
0000
1000
0000
,  // measure 60
0001
0100
0001
0100
0001
0100
0001
0100
,  // measure 61
0001
0100
0001
0100
0001
0100
0001
0100
,  // measure 62
0010
0000
0000
1000
0000
0000
0001
0000
1000
0000
0000
0100
0000
0000
0010
0000
,  // measure 63
0001
0000
0000
1000
0000
0000
0001
0000
0010
0000
0000
0100
0000
0000
1000
0000
,  // measure 64
0010
0000
0000
0100
0000
0000
0010
0000
1000
0000
0000
0100
0000
0000
0001
0000
,  // measure 65
1000
0000
0000
0010
0000
0000
1000
0000
0100
0000
0000
0010
0000
0000
0001
0000
,  // measure 66
1000
0010
0001
0100
2000
0000
3000
0000
,  // measure 67
0001
0010
0100
0000
1000
0010
0001
0000
,  // measure 68
0200
0000
0000
0000
0000
0000
0000
0010
,  // measure 69
0000
0010
0000
0010
0000
0010
0000
0010
,  // measure 70
0000
0010
0000
0010
0000
0010
0000
0010
,  // measure 71
0000
0010
0000
0010
0000
0010
0000
0010
,  // measure 72
0000
0310
0000
0000
0000
0000
0000
0000
;
