#TITLE:BREAK OVER;
#SUBTITLE:;
#ARTIST:MASAYOSHI IIMORI;
#TITLETRANSLIT:;
#SUBTITLETRANSLIT:;
#ARTISTTRANSLIT:;
#GENRE:;
#CREDIT:;
#BANNER:BREAK OVER.png;
#BACKGROUND:BREAK OVER-bg.png;
#LYRICSPATH:;
#CDTITLE:;
#MUSIC:BREAK OVER.mp3;
#OFFSET:-0.050000;
#SAMPLESTART:91.220001;
#SAMPLELENGTH:20.000000;
#SELECTABLE:YES;
#DISPLAYBPM:53.000000:300.000000;
#BPMS:0.000000=150.000000
,96.000000=75.000000
,104.000000=150.000000
,106.000000=75.000000
,113.000000=300.000000
,117.000000=150.000000
,123.000000=300.000000
,127.000000=150.000000
,148.000000=53.000000
,164.000000=212.000000
,188.000000=106.000000
,192.000000=212.000000
,320.000000=106.000000
;
#STOPS:147.750000=0.400000
;
#BGCHANGES:;
#KEYSOUNDS:;
#ATTACKS:;

//---------------dance-single - ----------------
#NOTES:
     dance-single:
     :
     Hard:
     15:
     0.734578,1.435845,0.427856,0.163363,0.490089,661.000000,606.000000,55.000000,21.000000,0.000000,0.000000,0.734578,1.435845,0.427856,0.163363,0.490089,661.000000,606.000000,55.000000,21.000000,0.000000,0.000000:
// measure 0
0000
0000
0000
0000
,  // measure 1
0000
0000
0000
0000
,  // measure 2
0000
0000
0000
0000
,  // measure 3
0000
0000
0000
0000
,  // measure 4
0010
0010
0100
0100
0001
0001
1000
1000
,  // measure 5
0100
0100
0010
0010
1000
1000
0001
0001
,  // measure 6
1000
1000
0100
0100
0010
0010
0001
0001
,  // measure 7
0100
0000
0010
0000
1000
0001
1000
0001
0100
0000
0000
0000
1001
0000
0000
0000
,  // measure 8
1001
0000
0000
0000
0000
0000
0000
0000
0000
0000
0000
0000
1000
0000
0000
0000
0010
0000
0000
0000
1000
0000
0000
0000
0010
0000
0000
0000
0000
0000
1000
0000
0000
0000
0000
0000
0100
0000
0000
0000
0000
0000
0001
0000
0000
0010
0000
0000
,  // measure 9
0001
0000
0100
0010
0100
0000
0001
1000
0001
0000
0100
0001
0100
0000
0010
0000
,  // measure 10
1000
0000
0000
0100
0000
0000
1000
0000
0000
0100
0000
0000
1000
0000
0000
0000
0001
0000
0000
0000
1000
0000
0000
0000
0001
0000
0000
0000
0000
0000
0100
0000
0000
0000
0000
0000
0010
0000
0000
0000
0000
0000
1000
0000
0000
0001
0000
0000
,  // measure 11
1000
0000
0001
0100
0001
0000
0010
0100
0010
0000
0100
1000
0100
0000
0010
0000
,  // measure 12
0110
0000
0000
0100
0001
0000
0101
0000
0000
0001
1000
0001
0100
0000
0000
0000
,  // measure 13
0110
0000
0000
0010
1000
0000
1100
0000
0000
1000
0001
1000
0010
0000
0000
0000
,  // measure 14
1001
0000
0000
0100
0010
0000
1010
0000
0000
1000
0100
1000
0001
0000
0000
0000
,  // measure 15
0010
0100
0000
0000
0000
0000
0000
0000
0100
0001
0000
0000
0000
0000
0000
0000
0001
1000
0000
0000
0000
0000
0000
0000
1000
0001
0000
0000
0000
0000
0000
0000
,  // measure 16
0110
0000
0000
0000
0000
0000
0000
0000
0000
0000
0000
0000
0010
0000
0000
0000
1000
0000
0000
0000
0001
0000
0000
0000
0100
0000
0000
0000
0000
0000
0010
0000
0000
0000
0000
0000
0100
0000
0000
0000
0000
0000
0001
0000
0000
1000
0000
0000
,  // measure 17
0001
0000
1000
0100
1000
0000
0100
0010
0100
0000
0010
0001
0010
0000
0100
0000
,  // measure 18
1000
0000
0000
0001
0000
0000
1000
0000
0000
0001
0000
0000
0100
0000
0000
0000
0010
0000
0000
0000
0100
0000
0000
0000
0010
0000
0000
0000
0000
0000
1000
0000
0000
0001
0000
0000
0100
0000
0000
0000
0000
0000
0010
0000
0000
0000
0000
0000
,  // measure 19
0100
0001
0100
0000
0010
1000
0010
0000
1000
0100
0010
0100
1000
0000
0001
0000
,  // measure 20
0101
0000
0000
0000
0100
0000
0110
0000
0000
0010
1000
0001
1000
0000
0100
0000
,  // measure 21
1100
0000
0000
0000
0001
0000
0101
0000
0000
0100
0010
1000
0010
0000
0100
0000
,  // measure 22
0101
0000
0000
0000
0001
0000
1010
0000
0000
1000
0100
0010
0001
0000
0100
0000
,  // measure 23
0110
0000
0000
0000
1001
0000
0000
0000
0110
0000
0000
0000
1000
0001
1000
0001
,  // measure 24
1000
0000
0000
0000
0010
0100
0010
0000
1000
0000
0001
0100
0001
0000
1000
0000
0010
0100
0010
0000
0100
0010
0100
0000
0001
1000
0001
0000
1000
0001
1000
0000
,  // measure 25
0001
0100
0010
0100
0001
0000
1000
0000
0010
1000
0100
0000
1000
0000
0001
0000
0100
0010
0100
0000
0001
0000
1000
0100
1000
0000
0001
0010
0100
0000
1000
0000
,  // measure 26
1100
0000
0000
0000
1100
0000
0000
0000
1100
0000
0000
0000
0000
0000
0000
0000
1000
0100
1000
0100
1000
0001
0100
0000
0010
0000
1000
0100
1000
0000
0010
0100
,  // measure 27
0010
0000
1000
0100
0001
0000
0001
0000
0100
0000
0100
0000
0100
0000
0100
0000
0100
0000
0010
1000
0010
0000
1000
0000
0001
0100
0001
0000
0010
0000
0100
0000
,  // measure 28
1000
0100
0010
0001
0020
0000
0000
0000
0000
0000
0000
0000
0000
0000
0000
0000
,  // measure 29
0030
0000
0000
0000
1000
0010
1000
0010
1000
0000
0100
0000
0010
0000
0001
0000
,  // measure 30
0100
0000
1000
0000
0010
0100
0010
0100
0010
0000
1000
0000
0200
0000
0000
0000
,  // measure 31
0000
0000
0000
0000
0000
0000
0000
0000
0300
0000
0000
0000
0010
0001
0010
0001
,  // measure 32
0010
0000
0100
0000
1000
0000
0001
0000
0100
0000
0010
0000
1000
0100
1000
0100
,  // measure 33
1000
0000
0001
0000
1001
0000
0000
0000
1001
0000
0000
0000
0100
0010
0100
0010
,  // measure 34
0100
0000
0010
0000
1000
0000
0100
0000
0010
0000
0001
0000
1000
0010
0100
0010
,  // measure 35
1000
0000
0001
0000
0010
0000
0000
0010
0001
0000
0000
0001
1000
0000
0000
1000
,  // measure 36
0100
0000
0000
0100
1000
0000
1000
0000
0001
0000
0001
0000
0100
0010
0100
0010
,  // measure 37
2002
0000
0000
0000
,  // measure 38
0000
0000
0000
3003
,  // measure 39
0020
2030
3002
0203
,  // measure 40
0301
0001
0010
0010
0100
0100
1000
1000
,  // measure 41
0010
0000
1000
0100
1000
0000
0010
0000
,  // measure 42
0100
0000
0001
1000
0001
0000
0010
0100
,  // measure 43
0010
0000
0100
0001
0100
0000
0010
0000
,  // measure 44
1000
0000
1000
0010
0100
0000
0100
0001
,  // measure 45
1000
0100
1000
0100
0010
0001
0010
0001
,  // measure 46
0100
0010
0100
0010
1000
0001
1000
0001
,  // measure 47
0101
0000
1100
0000
0011
0000
1010
0000
1001
0000
0110
0000
0100
0100
0100
0100
,  // measure 48
0120
0130
1010
0011
,  // measure 49
1000
0100
0100
0100
1000
0100
0100
0100
,  // measure 50
1000
0010
0010
0010
1000
0010
0010
0010
,  // measure 51
1000
1000
0001
0001
0101
0100
0110
0000
,  // measure 52
2001
3010
1100
0011
,  // measure 53
0100
0001
0001
0001
0100
0010
0010
0010
,  // measure 54
1000
0100
0100
0100
0001
1000
1000
1000
,  // measure 55
0001
0001
0010
0010
0110
0100
1100
0000
,  // measure 56
0010
0000
1000
0100
2000
0000
3001
0100
,  // measure 57
0002
0000
0103
0010
0200
0001
0302
0000
,  // measure 58
1003
0000
1000
0010
0200
0000
0310
0100
,  // measure 59
2000
0000
3010
1000
0002
0100
0203
0000
,  // measure 60
0301
0000
0010
0100
1001
0000
0010
0100
,  // measure 61
1001
0000
0010
0100
0001
1000
0100
0000
,  // measure 62
1000
0000
0000
1000
0100
0000
0000
0100
0010
0000
0000
0010
0001
0000
0000
0001
,  // measure 63
0100
0010
2000
0000
3001
0000
1001
0000
,  // measure 64
1020
0130
1100
0101
,  // measure 65
0010
0010
0010
0100
0010
0010
0010
1000
,  // measure 66
0001
0001
0001
0100
0010
0010
0010
0100
,  // measure 67
0001
0001
1000
1000
1100
0100
0110
0000
,  // measure 68
0012
0103
0110
1001
,  // measure 69
1000
1000
1000
0100
1000
1000
1000
0010
,  // measure 70
0100
0100
0100
0010
0100
0100
0100
0001
,  // measure 71
0010
0010
0001
0001
0101
0100
0110
0000
,  // measure 72
1001
0100
1000
0100
0000
0100
0010
0000
,  // measure 73
0010
0001
0000
0001
0100
0010
1000
0001
,  // measure 74
0010
0100
1000
0100
0000
0100
0010
0000
,  // measure 75
0001
1000
0000
1000
0100
0010
0001
0100
,  // measure 76
0010
0100
1000
0001
0000
0001
0010
0000
,  // measure 77
0100
0010
0000
0010
1000
0100
0010
0001
,  // measure 78
0010
0100
1000
0100
0000
0100
0010
0000
,  // measure 79
0010
0001
0000
1000
0100
0010
0001
0100
,  // measure 80
0010
0100
0010
0000
0110
0000
0000
0000
0000
0000
0000
0000
0000
0000
0000
0000
;

//---------------dance-single - ----------------
#NOTES:
     dance-single:
     :
     Medium:
     13:
     0.548989,0.873993,0.365622,0.062234,0.241155,494.000000,447.000000,47.000000,8.000000,0.000000,0.000000,0.548989,0.873993,0.365622,0.062234,0.241155,494.000000,447.000000,47.000000,8.000000,0.000000,0.000000:
0000
0000
0000
0000
,
0000
0000
0000
0000
,
0000
0000
0000
0000
,
0000
0000
0000
0000
,
0010
0001
0100
0000
0010
1000
0100
0000
,
1000
0010
0001
0000
1000
0100
0001
0000
,
1000
1000
0100
0100
0010
0010
0001
0001
,
0100
0001
1000
0001
0100
0000
1001
0000
,
1001
0000
0000
0000
0000
0000
0010
0000
0100
0000
0010
0000
0100
0000
0000
0001
0000
0000
1000
0000
0000
0001
0000
0000
,
1000
0000
0000
1000
0001
0000
0000
0001
0100
0000
0000
0100
0010
0000
0010
0000
,
0110
0000
0000
0000
0000
0000
0001
0000
1000
0000
0001
0000
1000
0000
0000
0010
0000
0000
0100
0000
0000
0010
0000
0000
,
1000
0000
0000
1000
0100
0000
0000
0100
0010
0000
0000
0010
0001
0000
0001
0000
,
0101
0000
0000
0001
1000
0000
0100
0000
0000
0000
1000
0000
0001
0000
0000
0000
,
1100
0000
0000
0100
1000
0000
0010
0000
0000
0000
1000
0000
0100
0000
0000
0000
,
1010
0000
0000
0010
1000
0000
0001
0000
0000
0000
1000
0000
0010
0000
0000
0000
,
1000
0001
0000
0000
0010
0100
0000
0000
0100
0010
0000
0000
0001
1000
0000
0000
,
1001
0000
0000
0000
0000
0000
0000
0000
0000
0000
0000
0000
0100
0000
0000
0000
1000
0000
0000
0000
0100
0000
0000
0000
1000
0000
0000
0000
0000
0000
0001
0000
0000
0000
0000
0000
0010
0000
0000
0000
0000
0000
0001
0000
0000
1000
0000
0000
,
0001
0000
0000
0001
0010
0000
0000
0010
0100
0000
0000
0100
1000
0000
1000
0000
,
1010
0000
0000
0000
0000
0000
0000
0000
0000
0000
0000
0000
0001
0000
0000
0000
0010
0000
0000
0000
0001
0000
0000
0000
0010
0000
0000
0000
0000
0000
1000
0000
0000
0000
0000
0000
0100
0000
0000
0000
0000
0000
1000
0000
0000
0001
0000
0000
,
1000
0100
1000
0001
0010
0001
1000
0100
,
1100
0000
0000
0100
0010
0000
0001
0000
0000
0000
0010
0000
0100
0000
0000
0000
,
0011
0000
0000
0100
0001
0000
1000
0000
0000
0000
0001
0000
0100
0000
0000
0000
,
1010
0000
0000
0100
0010
0000
1000
0000
0000
0000
0010
0000
0100
0000
0000
0000
,
0110
0000
1001
0000
0110
0000
1000
0001
,
1000
0000
0001
0000
0100
0010
0100
0010
1000
0100
0010
0001
0010
0100
1000
0000
,
0001
0000
0010
0000
0100
1000
0001
1000
0010
0100
0001
0010
0100
1000
0100
0000
,
1000
0000
0000
0000
1000
0000
0000
0000
1000
0000
0000
0000
0000
0000
0000
0000
0010
0100
0010
0100
0010
0000
1000
0000
0000
0000
0001
0000
0001
0000
0100
0000
,
0001
0000
1000
0000
1000
0000
0000
0000
1001
0000
0000
0000
0010
0000
0010
0000
0010
0000
0000
0100
0001
0000
1000
0000
0000
0000
1000
0000
1000
0000
0100
0000
,
0001
0001
0100
0000
0020
0000
0000
0000
0000
0000
0000
0000
0000
0000
0000
0000
,
0030
0000
0000
0000
1000
0000
0001
0100
0001
0000
1000
0000
0010
0000
0100
0000
,
0001
0010
0100
1000
0100
0000
0200
0000
,
0000
0000
0000
0000
0000
0000
0000
0000
0300
0000
0000
0000
0001
0000
1000
0010
,
1000
0001
0010
0100
1000
0001
1000
0100
,
0010
0000
0000
0000
1001
0000
0000
0000
1001
0000
0000
0000
0001
0000
1000
0001
,
1000
0100
0000
0100
0100
0001
0010
0010
,
0010
0000
0000
0000
0001
0000
0000
0100
0001
0000
0000
0000
1000
0000
0000
0100
,
1000
0000
0000
0000
0010
0000
0010
0000
0100
0000
0100
0000
1000
0001
1000
0001
,
2002
0000
0000
0000
,
0000
0000
0000
0000
,
0000
0000
0000
3003
,
0001
0001
0010
0010
0100
0100
1000
1000
,
0010
0000
0000
0010
0000
0000
0010
0000
,
1000
0000
0000
1000
0000
0000
1000
0001
,
0100
0000
0000
0100
0000
0000
0100
0000
,
0001
0000
0000
0001
0000
0000
0001
1000
,
0001
0010
0001
0000
0010
0100
0010
0000
,
0100
1000
0100
0000
1000
0001
1000
0000
,
1010
0000
0010
0000
0110
0000
0100
0000
1001
0000
0001
0000
1000
0001
1000
0001
,
0200
0300
0101
1100
,
1000
0100
1000
0000
0001
0100
0001
0000
,
1000
0100
0001
0000
1000
0100
0001
0000
,
0100
0010
0100
0010
0100
0000
1001
0000
,
0020
0030
1010
0011
,
0001
0010
0001
0000
1000
0010
1000
0000
,
0001
0010
1000
0000
0001
0010
1000
0000
,
0010
0100
0010
0100
0010
0000
1001
0000
,
0000
0000
0100
0001
1000
0000
0100
0001
,
1000
0000
0001
0100
0010
0000
0010
0000
,
0000
0000
0001
0010
0100
0000
0001
0010
,
0100
0000
0010
0100
1000
0000
1000
0000
,
0000
0000
0100
0001
0010
0000
0100
0001
,
0010
0000
1000
0010
0001
0000
0001
0000
,
0110
1001
0110
1001
,
1100
0011
0101
1010
,
0002
0003
1100
0011
,
0100
0001
0100
0000
0010
0001
0010
0000
,
0100
0001
0010
0000
0100
0001
0010
0000
,
1000
0100
1000
0100
1000
0000
1001
0000
,
2000
3000
1010
0101
,
0010
1000
0010
0000
0100
1000
0100
0000
,
0010
1000
0100
0000
0010
1000
0100
0000
,
0001
0010
0001
0010
0001
0000
1001
0000
,
0110
0000
0000
1001
0000
0000
0101
0000
,
0000
1010
0000
0000
1100
0000
0001
1000
,
0001
0000
0000
0100
0000
0000
0010
0000
,
0000
1000
0000
0000
0100
0000
1000
0001
,
1000
0000
0000
0010
0000
0000
0001
0000
,
0000
0100
0000
0000
0010
0000
0100
0010
,
0100
0000
0000
0010
0000
0000
1000
0000
,
0000
0100
0000
0000
0001
0000
0010
1000
,
0010
0100
0010
0000
0110
0000
0000
0000
0000
0000
0000
0000
0000
0000
0000
0000
;

//---------------dance-single - ----------------
#NOTES:
     dance-single:
     :
     Easy:
     10:
     0.438969,0.717922,0.544544,0.357843,0.062234,395.000000,325.000000,70.000000,46.000000,0.000000,0.000000,0.438969,0.717922,0.544544,0.357843,0.062234,395.000000,325.000000,70.000000,46.000000,0.000000,0.000000:
0000
0000
0000
0000
,
0000
0000
0000
0000
,
0000
0000
0000
0000
,
0000
0000
0000
0000
,
0010
0100
0001
1000
,
0100
0010
1000
0001
,
1000
0001
1000
0000
0010
0100
0010
0000
,
2000
3002
0203
0310
,
1001
0000
0010
1000
0100
0010
0001
0000
,
0101
1100
0101
1100
,
0110
0000
0001
0100
0010
1000
0100
0000
,
1010
0011
1010
0011
,
0020
0000
0000
2030
0000
0100
3100
0000
,
0020
0000
0000
0032
0000
0100
0103
0000
,
0002
0000
0000
2003
0000
0010
3010
0000
,
1100
0011
0101
1010
,
1001
0000
0100
0001
0100
0010
1000
0000
,
1010
0101
1010
0101
,
0110
0000
0001
1000
0100
0010
0001
0000
,
1100
0000
0011
0000
1000
0100
0010
0001
,
0020
0000
0000
0032
0000
1000
1003
0000
,
0200
0000
0000
2300
0000
0001
3001
0000
,
0020
0000
0000
0230
0000
0001
0301
0000
,
0110
1001
0110
1001
,
1000
0000
0001
0000
0100
0010
0100
0010
0000
1000
1000
0000
0001
0100
0001
0000
,
0010
0000
0100
0000
0001
1000
0001
1000
0000
0010
0010
0000
1000
0100
0001
0000
,
1000
0000
1000
0000
1000
0000
0000
0000
0001
1000
0001
1000
0000
0100
0100
0000
,
0010
1000
0010
0000
1000
0000
0100
0000
1000
0001
0010
0100
0000
0010
0010
0000
,
0001
0100
1000
0000
0020
0000
0000
0000
0000
0000
0000
0000
0000
0000
0000
0000
,
0030
1100
0101
0011
,
1010
0110
1001
0200
,
0000
0000
0300
0101
,
1010
1001
0110
1100
,
0011
2000
3002
0203
,
0310
0020
0000
1030
0002
0000
0103
0010
,
1000
0002
2003
3020
,
0230
0000
0301
0010
0100
1000
0010
0100
,
2002
0000
0000
0000
,
0000
0000
0000
0000
,
0000
0000
0000
3003
,
0002
0000
2003
0000
3010
0010
0100
0100
,
0001
0100
1000
0000
,
1000
0100
0001
0000
,
0010
1000
0100
0000
,
0010
0001
0100
0000
,
0001
0001
1000
1000
,
0010
0010
0100
0100
,
1000
1000
1000
1000
1000
0001
0100
0100
,
2002
3000
0010
1003
,
0001
0101
1000
1100
,
0001
0011
1000
1010
,
0010
0100
0110
1001
,
0220
0030
0001
0310
,
0001
0011
1000
1100
,
0001
0101
1000
1010
,
0100
0010
1001
0110
,
0000
0000
1000
0001
1000
0000
0010
0000
,
0100
0100
0001
0001
,
0000
0000
0100
0010
0100
0000
0001
0000
,
1000
0001
1000
0010
,
0000
0000
1000
0100
1000
0000
0010
0000
,
0100
0001
0001
0010
,
0002
2003
3002
2003
,
3010
0100
0101
1010
,
0220
0300
1000
0130
,
1000
1010
0100
0101
,
0010
1010
0001
0011
,
0100
0010
1001
0110
,
2002
0003
0100
3001
,
0010
1100
0001
1010
,
0100
0101
0010
0011
,
1000
0001
0011
1100
,
0020
0000
0000
1000
0000
0000
0001
0000
,
0000
0100
0000
0000
0001
0000
1030
0000
,
0200
0000
0000
0010
0000
0000
1000
0000
,
0000
0001
0000
0000
0010
0000
0301
0000
,
0002
0000
0000
0100
0000
0000
0010
0000
,
0000
1000
0000
0000
0100
0000
1003
0000
,
2000
0000
0000
0010
0000
0000
0001
0000
,
0000
0100
0000
0000
0001
0000
3010
0000
,
0100
0010
0110
0000
0000
0000
0000
0000
;

//---------------dance-single - ----------------
#NOTES:
     dance-single:
     :
     Beginner:
     5:
     0.212261,0.374568,0.116688,0.031117,0.000000,191.000000,176.000000,15.000000,4.000000,0.000000,0.000000,0.212261,0.374568,0.116688,0.031117,0.000000,191.000000,176.000000,15.000000,4.000000,0.000000,0.000000:
0000
0000
0000
0000
,
0000
0000
0000
0000
,
0000
0000
0000
0000
,
0000
0000
0000
0000
,
0010
0010
0010
0000
,
0100
0100
0100
0000
,
0001
0001
0001
0000
,
1000
1000
1000
0000
,
1001
0000
0100
0000
,
0001
0001
0001
0000
,
1001
0000
0100
0000
,
1000
1000
1000
0000
,
0010
0000
0000
1000
,
1000
0000
0000
0001
,
0001
0000
0000
0100
,
0100
0000
0010
0000
,
0110
0000
0010
0000
,
1000
1000
1000
0000
,
0110
0000
0010
0000
,
0001
0001
0001
0000
,
1000
0000
0000
0100
,
0100
0000
0000
0010
,
0010
0000
0000
0001
,
0001
0001
0001
0000
,
0010
0000
0100
0000
0010
0010
0010
0000
,
1000
0000
0001
0000
1000
1000
1000
0000
,
1001
0000
0000
0000
0010
0000
0100
0001
,
1000
0000
0001
0000
0010
0000
1000
0010
,
0001
0020
0000
0030
,
0000
0100
0000
0010
,
1000
0100
0000
0200
,
0000
0300
0000
0001
,
0000
1000
0010
1000
,
0000
1001
1001
0000
,
0010
0000
0100
0001
,
1000
0000
0001
0001
,
0000
1000
1000
1000
,
2002
0000
0000
0000
,
0000
0000
0000
0000
,
0000
0000
0000
3003
,
0000
0000
0000
0000
,
0001
0000
0001
0000
,
1000
0000
1000
0000
,
0010
0000
0010
0000
,
0100
0000
0100
0000
,
0001
0000
0010
0000
,
0100
0000
1000
0000
,
0010
0010
0010
1001
,
0110
0000
0000
0000
,
1000
0000
1000
0000
,
0001
0000
0001
0000
,
0100
0100
0100
0100
,
0110
0000
0000
0000
,
0001
0000
0001
0000
,
1000
0000
1000
0000
,
0010
0010
0010
0010
,
0000
0000
1000
0000
,
0100
0000
0010
0010
,
0000
0000
0001
0000
,
0010
0000
0100
0100
,
0000
0000
1000
0000
,
0001
0000
0100
0100
,
0010
0000
1000
0000
,
0110
0000
0000
0000
,
1001
0000
0000
0000
,
0010
0000
0010
0000
,
0100
0000
0100
0000
,
0001
0001
0001
0001
,
1001
0000
0000
0000
,
0100
0000
0100
0000
,
0010
0000
0010
0000
,
1000
1000
1000
1000
,
1000
0000
0100
0000
,
0010
0000
0001
0000
,
0001
0000
0010
0000
,
0100
0000
1000
0000
,
0010
0000
0100
0000
,
0001
0000
1000
0000
,
0001
0000
0100
0000
,
1000
0000
0010
0000
,
0100
0110
0000
0000
;
