#TITLE:BRAINSTORM;
#SUBTITLE:;
#ARTIST:Hardcore United Tokyo (teranoid & DJ TECHNORCH);
#TITLETRANSLIT:;
#SUBTITLETRANSLIT:;
#ARTISTTRANSLIT:;
#GENRE:;
#CREDIT:;
#BANNER:BRAINSTORM.png;
#BACKGROUND:BRAINSTORM-bg.png;
#LYRICSPATH:;
#CDTITLE:;
#MUSIC:BRAINSTORM.mp3;
#OFFSET:-0.031250;
#SAMPLESTART:22.700871;
#SAMPLELENGTH:20.000275;
#SELECTABLE:YES;
#DISPLAYBPM:180.000000;
#BPMS:0.000000=180.059998
;
#STOPS:
;
#BGCHANGES:;
#KEYSOUNDS:;
#ATTACKS:;

//---------------dance-single - x scale 4----------------
#NOTES:
     dance-single:
     :
     Beginner:
     4:
     0.189370,0.286006,0.064271,0.000000,0.000000,165.000000,157.000000,8.000000,0.000000,0.000000,0.000000,0.189370,0.286006,0.064271,0.000000,0.000000,165.000000,157.000000,8.000000,0.000000,0.000000,0.000000:
// measure 0
0000
0000
0000
0000
,  // measure 1
0000
0000
0000
0000
,  // measure 2
0000
0000
0000
0000
,  // measure 3
0000
0000
0000
0000
,  // measure 4
0000
0000
0000
0000
,  // measure 5
0000
0000
0000
0000
,  // measure 6
0000
0000
0000
0000
,  // measure 7
0000
0000
0000
0000
,  // measure 8
0000
0000
0000
0000
,  // measure 9
1000
0000
1000
0000
,  // measure 10
0000
0000
0001
0000
,  // measure 11
0100
0000
0100
0000
,  // measure 12
0010
0000
0010
0000
,  // measure 13
1000
0000
0001
0000
,  // measure 14
0000
0000
0001
0000
,  // measure 15
0100
0000
0010
0000
,  // measure 16
1001
0000
0000
0000
,  // measure 17
0100
0000
0100
0000
,  // measure 18
0010
0000
0010
0000
,  // measure 19
1000
0000
1000
0000
,  // measure 20
0001
0000
0001
0000
,  // measure 21
0010
0000
0010
0000
,  // measure 22
0100
0000
0100
0000
,  // measure 23
0001
0000
1000
0000
,  // measure 24
1001
0000
0000
0000
,  // measure 25
1000
1000
1000
0000
,  // measure 26
0010
0010
0010
0000
,  // measure 27
0100
0100
0100
0000
,  // measure 28
0001
0001
0001
0000
,  // measure 29
0100
0100
0100
0000
,  // measure 30
0010
0010
0010
0000
,  // measure 31
1000
0000
1000
0000
,  // measure 32
0001
0001
0000
0000
,  // measure 33
0000
0100
0000
0100
,  // measure 34
0000
0010
0000
0010
,  // measure 35
0000
1000
0000
1000
,  // measure 36
0000
0001
0000
0001
,  // measure 37
0000
1000
0000
0100
,  // measure 38
0000
0010
0000
0001
,  // measure 39
0001
0000
0000
0000
,  // measure 40
1000
0000
0000
0000
,  // measure 41
0001
0000
0001
0000
,  // measure 42
0100
0000
0100
0000
,  // measure 43
1000
0000
1000
0000
,  // measure 44
0010
0000
0010
0000
,  // measure 45
0100
0100
0100
0000
,  // measure 46
0010
0010
0010
0000
,  // measure 47
1000
1000
1000
0000
,  // measure 48
0001
0001
0001
0000
,  // measure 49
1000
0000
0000
0000
,  // measure 50
0010
0000
0100
0000
,  // measure 51
0001
0000
0000
0000
,  // measure 52
1000
0000
0100
0000
,  // measure 53
0010
0000
0000
0000
,  // measure 54
0001
0000
1000
0000
,  // measure 55
0001
0000
0000
0000
,  // measure 56
0100
0000
0010
0000
,  // measure 57
0001
0000
0000
0000
,  // measure 58
0010
0000
0100
0000
,  // measure 59
1000
0000
0000
0000
,  // measure 60
0001
0000
0100
0000
,  // measure 61
0010
0000
0000
0000
,  // measure 62
1000
0000
0001
0000
,  // measure 63
1000
0000
0000
0000
,  // measure 64
0010
0000
0100
0000
,  // measure 65
0110
0000
0000
0000
,  // measure 66
0110
0000
0000
0000
,  // measure 67
0110
0000
0000
0000
,  // measure 68
1001
0000
0000
0000
,  // measure 69
0010
0000
1000
0000
,  // measure 70
0001
0000
1000
0000
,  // measure 71
0010
0000
0100
0000
,  // measure 72
0001
0000
0100
0000
,  // measure 73
0001
0000
1000
0000
,  // measure 74
0001
0000
0100
0000
,  // measure 75
0010
0000
1000
0000
,  // measure 76
0010
0000
0100
0000
,  // measure 77
0001
0001
0001
0000
,  // measure 78
1000
1000
1000
0000
,  // measure 79
0010
0010
0010
0000
,  // measure 80
0100
0100
0100
0000
,  // measure 81
0010
0010
0010
0000
,  // measure 82
1000
1000
1000
0000
,  // measure 83
0001
0001
0001
0000
,  // measure 84
0110
0000
0000
0000
,  // measure 85
0100
0000
0000
0000
,  // measure 86
0100
0000
0010
0000
,  // measure 87
1000
0000
1000
0000
,  // measure 88
0001
0000
0000
0000
,  // measure 89
1001
0000
0000
0000
;

//---------------dance-single - x scale 7----------------
#NOTES:
     dance-single:
     :
     Easy:
     7:
     0.344309,0.437444,0.224948,0.289219,0.000000,300.000000,272.000000,28.000000,36.000000,0.000000,0.000000,0.344309,0.437444,0.224948,0.289219,0.000000,300.000000,272.000000,28.000000,36.000000,0.000000,0.000000:
0000
0000
0000
0000
,
0000
0000
0000
0000
,
0000
0000
0000
0000
,
0000
0000
0000
0000
,
0000
0000
0000
0000
,
0000
0000
0000
0000
,
0000
0000
0000
0000
,
0000
0000
0000
0000
,
0000
0000
0000
0000
,
0010
0000
0100
0000
,
0000
0001
1000
0000
,
0100
0000
0010
0000
,
1000
0010
0100
0000
,
0001
0000
1000
0000
,
0000
0010
0100
0000
,
0001
0000
0000
0010
0000
0000
0100
0000
,
2000
0000
0000
3000
,
1000
0100
0010
0001
,
0100
0010
1000
0001
,
0100
0100
0010
0010
,
1000
0001
1000
0001
,
0010
0001
0100
1000
,
0010
0100
0001
1000
,
0001
0010
0100
1000
,
2002
0000
0000
3003
,
0001
0010
1000
0100
,
0010
1000
0001
0100
,
0001
0001
0100
0100
,
0010
1000
0010
1000
,
0100
0010
1000
0001
,
0010
0100
0001
1000
,
1100
0000
0011
0000
,
0100
0010
0220
0330
,
0000
0001
0001
0001
,
1000
0010
1000
0100
,
0000
1000
1000
1000
,
0010
0100
0001
0100
,
0000
0010
0010
0010
,
1000
0001
0100
1000
,
0010
0010
0100
0100
,
0001
0001
1000
1000
,
0001
0010
0100
1000
,
0010
1000
0001
0100
,
1000
0100
0010
0001
,
0010
0001
0100
1000
,
0010
1000
1000
1000
,
0010
0001
0001
0001
,
0010
0100
0100
0100
,
0110
0000
1001
0000
,
2000
0010
0010
3010
,
2100
3001
0012
1003
,
0200
0001
0001
0301
,
0020
0130
0020
1030
,
2000
0001
0001
3001
,
0021
0031
1200
0310
,
2000
0100
0100
3100
,
1002
0013
0210
0310
,
0002
0010
0100
1003
,
0012
1003
2001
3001
,
2000
0100
0010
3001
,
2100
3010
0120
1030
,
0001
0000
0000
0001
0000
0000
0001
0000
,
1000
0000
0000
1000
0000
0000
1000
0000
,
0010
0000
0000
0010
0000
0000
0010
0000
,
0100
0000
0000
0100
0000
0000
0100
0000
,
0220
0000
0030
0301
,
0022
0000
0030
1003
,
2200
0000
0300
3010
,
2002
0000
0000
3003
,
1000
0010
0000
0010
,
0001
0010
0000
0010
,
1000
0001
0000
1000
,
1100
0000
0100
0010
,
1000
0100
0000
0100
,
0001
0100
0000
0100
,
1000
0001
0000
1000
,
0011
0000
0010
0100
,
0010
0100
0001
1000
,
0001
1000
0010
0100
,
1000
1000
0001
0001
,
0100
0010
0100
0010
,
1000
1000
1000
0001
,
0100
0100
0100
0001
,
0010
0010
0010
0001
,
0100
0000
0000
0010
0000
0000
1001
0000
,
0210
0001
0001
0301
,
0020
0130
0002
1003
,
1000
0001
0100
0010
,
0000
0011
1100
0110
,
2002
0000
0000
0000
,
0000
0000
0000
3003
;

//---------------dance-single - x scale 10----------------
#NOTES:
     dance-single:
     :
     Medium:
     10:
     0.486623,0.583259,0.241016,0.200847,0.012051,424.000000,394.000000,30.000000,25.000000,0.000000,0.000000,0.486623,0.583259,0.241016,0.200847,0.012051,424.000000,394.000000,30.000000,25.000000,0.000000,0.000000:
0000
0000
0000
0000
,
0000
0000
0000
0000
,
0000
0000
0000
0000
,
0000
0000
0000
0000
,
0000
0000
0000
0000
,
0000
0000
0000
0000
,
0000
0000
0000
0000
,
0000
0000
0000
0000
,
0000
0000
0000
0000
,
0001
0100
0000
0000
0110
0000
0000
0000
,
0000
0000
1000
0001
1000
0000
0000
0000
,
0100
0010
0000
0000
1100
0000
0000
0011
,
0000
0100
0000
0000
1010
0000
0010
0000
,
1000
0001
0000
0000
0101
0000
0000
0000
,
0000
0100
0010
0100
0010
0000
0000
0000
,
1000
0000
1000
0001
0000
0001
0100
0000
,
2002
0000
0000
3003
,
0010
1000
0010
0000
0100
1000
0100
0000
,
0010
0001
0010
0000
0100
0001
0100
0000
,
0010
1000
0010
0000
0001
1000
0001
0000
,
0100
0001
0100
0000
1000
0001
1000
0000
,
0010
1000
0010
0000
0100
0001
0100
0000
,
0001
0010
0001
0000
1000
0100
1000
0000
,
0010
0100
0010
0000
1000
0001
1000
0000
,
2200
0000
0000
3300
,
0001
0000
0001
0100
0010
0100
0010
0000
,
1000
0000
1000
0010
0100
0010
0100
0000
,
0001
0000
0001
1000
0010
1000
0010
0000
,
0100
0000
0100
0001
1000
0001
1000
0000
,
0100
0000
0100
0010
1000
0001
0010
0000
,
0001
0000
0001
0100
0010
1000
0100
0000
,
0202
0303
2002
3003
,
1010
0011
0220
0330
,
0000
2000
0001
0000
0100
0000
3010
0000
,
1000
0000
0001
0100
0000
0110
0000
1001
,
0000
0002
0100
0000
0010
0000
1003
0000
,
0001
0000
0100
0010
0000
1010
0000
0101
,
0000
0200
0010
0000
1000
0000
0301
0000
,
0100
0000
0010
1000
0000
0010
0000
0100
,
1100
0000
1000
0001
0000
0100
0010
0000
,
0011
0000
0100
0010
0000
1000
0000
0001
,
1000
0100
0010
0000
0100
0010
0001
0000
,
0010
0001
1000
0000
0001
1000
0100
0000
,
0001
0010
0100
0000
0010
0100
1000
0000
,
0100
1000
0001
0000
1000
0001
0010
0000
,
1000
0000
1000
0001
0010
0001
0010
0000
,
0100
0000
0100
0010
1000
0010
1000
0000
,
0001
0000
0001
0100
1000
0100
1000
0000
,
0020
1000
0200
0330
,
0010
0000
1000
0000
0010
0100
0010
0000
,
1000
0000
0001
0000
1000
0100
1000
0000
,
0100
0000
0010
0000
1000
0100
1000
0000
,
0001
0000
0010
0000
1000
0001
1000
0000
,
0100
0000
0100
0000
0001
0010
0001
0000
,
1000
0000
1000
0000
0010
0100
0010
0000
,
1000
0000
1000
0000
0001
0100
0001
0000
,
0010
0000
0010
0000
1000
0001
1000
0000
,
0010
0000
0001
0000
0100
0001
0010
0000
,
1000
0000
0001
0000
0100
0001
1000
0000
,
0010
0000
0100
0000
1000
0100
0010
0000
,
0001
0000
0010
0000
1000
0010
0001
0000
,
0100
0000
0000
0100
0000
0000
0100
0000
,
0010
0000
0000
0010
0000
0000
0010
0000
,
1000
0000
0000
1000
0000
0000
1000
0000
,
0001
0000
0000
0001
0000
0000
0001
0000
,
0010
0000
0000
0010
0000
0000
0010
0000
0000
0000
1000
0000
0001
0000
0000
0000
,
0010
0000
0000
0010
0000
0000
0010
0000
0000
0000
0001
0000
1000
0000
0000
0000
,
0010
0000
0000
0010
0000
0000
0010
0000
0000
0000
1000
0000
0001
0000
0000
0000
,
2002
0000
0000
3003
,
0010
0000
1000
0001
0000
1000
0001
0000
,
0100
0000
0001
1000
0000
0001
1000
0000
,
0010
0000
0100
0010
0000
0100
0010
0000
,
1020
0000
1030
0000
2100
0000
3010
0100
,
0110
0000
1000
0100
0000
0010
0001
0000
,
0011
0000
0100
0010
0000
1000
0001
0000
,
0101
0000
1000
0010
0000
0001
0100
0000
,
0020
0000
1030
0000
2000
0000
3001
0010
,
0001
0100
0001
0000
1000
0100
1000
0000
,
0001
0010
0001
0000
1000
0010
1000
0000
,
0100
0000
0100
0010
1000
0010
1000
0000
,
0001
0000
0001
0100
0010
0100
0010
0000
,
1000
0100
0010
0001
0010
0100
1000
0000
,
0001
0010
0100
1000
0100
0010
0001
0000
,
0100
0010
0100
0010
0100
0010
0100
0000
,
0002
1000
0000
1000
0000
1003
0001
0000
,
0101
0100
0001
0000
1000
0001
1000
0000
,
1010
1000
0001
0000
0110
0100
0010
0000
,
1000
0100
0001
0100
1000
0000
0001
0011
,
0000
1000
2100
0000
0010
0000
3010
0000
,
2002
0000
0000
0000
,
0000
0000
0000
3003
;

//---------------dance-single - x scale 13----------------
#NOTES:
     dance-single:
     :
     Hard:
     13:
     0.631233,0.707765,0.289219,0.353490,0.096406,550.000000,514.000000,36.000000,44.000000,0.000000,0.000000,0.631233,0.707765,0.289219,0.353490,0.096406,550.000000,514.000000,36.000000,44.000000,0.000000,0.000000:
0000
0000
0000
0000
,
0000
0000
0000
0000
,
0000
0000
0000
0000
,
0000
0000
0000
0000
,
0000
0000
0000
0000
,
0000
0000
0000
0000
,
0000
0000
0000
0000
,
0000
0000
0000
0000
,
0000
0000
0000
0000
,
0100
0010
0000
0000
0110
0000
0000
0000
,
0000
0000
1000
0001
0011
0000
0000
0000
,
1000
0010
0000
0000
1010
0000
0000
2000
,
0000
0000
3002
0000
0000
0000
1003
0000
0001
0000
0000
0000
0100
0010
0100
0010
,
0100
0001
0000
0000
0001
0000
0000
0000
,
0000
1000
0100
1000
0010
0000
0000
0000
,
0201
0000
0310
1020
0000
0130
0001
1000
,
2002
0000
0000
3003
,
0010
0001
1000
0010
1000
0100
0001
0100
,
1000
0010
0001
1000
0100
0001
0100
0010
,
0100
0001
1000
0010
0001
0010
1000
0100
,
0001
0010
0100
1000
0100
0010
0001
0000
,
0100
0010
1000
0010
0001
1000
0100
0001
,
1000
0100
0001
0100
0010
1000
0001
0010
,
1000
0100
0010
0001
0100
0010
1000
0001
,
0220
0000
0000
0330
,
0001
0010
1000
0010
0100
0001
0100
1000
,
0010
1000
0010
0001
1000
0100
0001
0100
,
1000
0010
0001
0010
0100
1000
0100
0001
,
1000
0100
0010
0001
0010
0100
1000
0000
,
0010
1000
0010
0001
1000
0100
0001
0100
,
0001
0100
1000
0100
0010
1000
0010
0001
,
2200
3300
0022
0033
,
0101
1010
2002
3003
,
0001
0010
0100
1000
0010
1000
0001
0100
,
0010
0100
0001
1000
0000
1100
0000
0101
,
0000
0001
0010
0100
0010
1000
0100
0001
,
1000
0001
0100
0010
0000
0011
0000
1010
,
0000
1000
0100
0001
1000
0010
0100
0001
,
0100
0010
1000
0001
0000
0001
0000
1000
,
1001
0000
0100
0010
0000
0010
1000
0100
,
0110
0000
1000
0002
0000
0203
0000
0310
,
1000
0100
0001
0010
0100
0010
1000
0001
,
0010
1000
0001
0010
1000
0100
0001
0100
,
1000
0010
0001
1000
0100
0010
0100
0001
,
1000
0001
1000
0001
1000
0001
1000
0000
,
0001
0010
1000
0100
1000
0010
0001
0100
,
0010
0100
0001
0010
1000
0100
1000
0001
,
0100
0010
0100
0010
1000
0001
1000
0001
,
0200
0320
2000
3030
,
0001
0000
0100
0010
1000
0010
0100
0000
,
0010
0000
1000
0001
0100
0001
1000
0000
,
0100
0000
0010
0001
1000
0001
0010
0000
,
1000
0000
0001
0010
0100
0010
0001
0000
,
0100
0000
0001
1000
0001
1000
0100
0000
,
0010
0000
1000
0001
1000
0001
0010
0000
,
1000
0000
0100
0010
0100
0010
1000
0000
,
0001
0000
0010
0100
0010
0100
0001
0000
,
1001
0000
0010
1000
0010
0001
0010
0000
,
0101
0000
0100
0001
0100
1000
0100
0000
,
0011
0000
1000
0100
0001
0100
1000
0000
,
1100
0000
0001
0010
1000
0010
0001
0000
,
1010
0000
0100
0001
0100
0001
0100
0000
,
0001
0000
1000
0100
1000
0100
1000
0000
,
0110
0000
0010
1000
0010
1000
0010
0000
,
1000
0000
0001
0010
0001
0010
0001
0000
,
2000
0000
0000
3200
0000
0000
0320
0000
0000
0032
0000
0000
0103
0000
0010
0000
,
2000
0000
0000
3020
0000
0000
0230
0000
0000
0302
0000
0000
1003
0000
0001
0000
,
2000
0000
0000
3002
0000
0000
0203
0000
0000
0320
0000
0000
1030
0000
0100
0000
,
2002
0000
0000
3003
,
0110
0000
0000
0010
1000
0000
0100
0000
0000
0000
0100
0000
1000
0000
0010
0000
,
1000
0000
0000
1000
0001
0000
0100
0000
0000
0000
0100
0000
0010
0000
0001
0000
,
0100
0000
0000
0100
0001
0000
1000
0000
0000
0000
1000
0000
0001
0000
0010
0000
,
0011
0000
1010
0000
0100
0010
1000
0001
,
1000
0000
0000
1000
0010
0000
0100
0000
0000
0000
0001
0000
0010
0000
0001
0000
,
0010
0000
0000
0010
1000
0000
0100
0000
0000
0000
1000
0000
0001
0000
0100
0000
,
0001
0000
0000
0001
0010
0000
1000
0000
0000
0000
0010
0000
0100
0000
1000
0000
,
1100
0000
0101
0000
1000
0010
0100
0001
,
1000
0010
0001
0010
1000
0010
0001
0010
,
1000
0100
0001
0100
1000
0100
0001
0100
,
1000
0010
0001
0010
1000
0100
0001
0100
,
0010
0100
0010
0100
0010
0100
0010
0000
,
1000
0001
0010
1000
0001
0100
0010
0100
,
0010
1000
0100
0010
0001
0100
0001
1000
,
0001
0010
0001
0010
0100
1000
0100
1000
,
0001
0000
0100
0000
0000
0000
0100
0000
0000
0000
0100
0001
0100
0000
0000
0000
,
0110
0000
0200
0000
0000
0000
0310
1000
0010
0000
0100
0000
0001
0000
1000
0000
,
0010
0000
0100
0001
0100
0000
0010
0000
1000
0000
0001
0000
1000
0000
0000
0000
,
1100
1000
0010
0100
0201
0000
0301
0012
,
0000
0103
0020
0000
2030
0000
3001
0000
,
2020
0000
0000
0000
,
0000
0000
0000
0000
0000
0000
0000
0000
0000
0000
0000
0000
3030
0100
0020
0000
,
0000
0200
0000
0000
0000
0000
0000
0000
0030
0000
0000
0302
0000
0000
0000
0000
,
0000
0000
0000
0000
0000
0000
1000
0000
0000
0000
0000
0000
0000
0000
0000
2003
0000
0000
0000
0000
0000
0000
0000
0000
0000
0000
0000
0000
0000
0000
0000
0000
0000
0000
0000
0000
3100
0000
0000
0000
0000
0000
0000
0000
0000
0000
0000
1001
0000
0000
0000
0000
0000
0000
0000
0000
0000
0000
0000
0000
0000
0000
0000
0000
;

//---------------dance-single - x scale 18----------------
#NOTES:
     dance-single:
     :
     Challenge:
     18:
     1.029483,1.192026,1.156877,0.706981,0.715015,897.000000,753.000000,144.000000,88.000000,0.000000,0.000000,1.029483,1.192026,1.156877,0.706981,0.715015,897.000000,753.000000,144.000000,88.000000,0.000000,0.000000:
0000
0000
0000
0000
,
0000
0000
0000
0000
,
0000
0000
0000
0000
,
0000
0000
0000
0000
,
0000
0000
0000
0000
,
0000
0000
0000
0000
,
0000
0000
0000
0000
,
0000
0000
0000
0000
,
0000
0000
0000
0000
,
1001
0100
0010
1000
2100
0000
3001
0000
,
0100
0000
0110
0001
0102
0000
0013
0000
,
1010
1000
0001
0010
0012
0000
0103
0020
,
1030
0000
0020
0000
0130
0000
0001
0000
0201
0000
0000
0000
0301
0010
0100
1000
,
0010
0110
0100
0001
1002
0000
1003
0000
,
1000
0010
1010
0100
0102
0000
0103
0000
,
0011
0000
1010
1010
0000
0101
0101
0100
,
1001
0100
0010
2002
0000
0000
0003
0000
,
3001
0000
0100
0010
1000
0000
0100
0001
1000
0001
0100
0000
0020
0000
2030
0000
,
3100
0000
1000
0001
0010
0000
1000
0100
0010
0100
1000
0000
0002
0000
0023
0000
,
1030
0000
0001
0100
0010
0000
0100
0010
0001
0010
0100
0000
0002
0000
2003
0000
,
3010
0000
1000
0001
0100
0000
0001
0010
0100
1000
0100
0010
0001
0000
0000
0000
,
0001
0000
0100
1000
0010
0000
1000
0001
0010
0001
1000
0000
0020
0000
0230
0000
,
0310
0000
0100
1000
0001
0000
0100
0001
1000
0001
0100
0000
0020
0000
2030
0000
,
3100
0000
1000
0010
0001
0000
0010
0100
0001
0100
0010
0000
2000
0000
3002
0000
,
0103
0000
0100
0000
0100
0010
0210
0000
,
0310
0000
1000
0001
0100
0000
0010
1000
0100
0010
0100
0000
2000
0000
3002
0000
,
0103
0000
0010
0001
1000
0000
0100
0001
1000
0100
0001
0000
0020
0000
2030
0000
,
3100
0000
0001
0010
1000
0000
0010
0001
0010
1000
0001
0000
0200
0000
0320
0000
,
1030
0000
0001
0100
0010
0000
1000
0100
0010
0001
0010
0100
1000
0000
0000
0000
,
1100
0000
0010
0001
0100
0000
0010
1000
0100
1000
0001
0000
2000
0000
3100
0000
,
1010
0000
0001
0010
1000
0000
0100
0010
1000
0100
0001
0000
0020
0000
0031
0000
,
0100
0010
1000
0010
0200
0000
0000
0000
0301
1000
0010
1000
0001
0000
0000
0000
,
1010
0010
0110
0100
0201
0301
2000
0000
,
3100
0010
1010
0010
0011
0010
1010
0010
,
1100
0001
0100
0101
0100
1100
0100
0101
,
1000
0001
0011
0001
1100
0001
0011
0001
,
0101
0010
1000
1010
1000
0101
1000
1010
,
0100
1000
1100
0100
0011
1000
1001
0100
,
0110
0001
0010
1100
0001
1001
0010
0110
,
0011
0100
0010
1010
1000
0110
0010
0100
,
1100
0100
0001
0101
0010
1001
1000
1010
,
0100
0000
0001
0010
1000
0000
0100
0010
1000
0100
0010
0001
2000
0000
3002
0000
,
1003
0000
0010
0001
0100
0000
1000
0100
0001
0010
0100
0001
2000
0000
3020
0000
,
0130
0000
0010
0100
1000
0000
0001
0010
1000
0001
1000
0010
0200
0000
0302
0000
,
1003
0001
0100
0001
1000
0000
0010
1000
0100
0010
0001
0010
0200
0000
0000
0000
,
0310
0000
1000
0001
0010
0000
0001
0100
1000
0100
0001
1000
0020
0000
0230
0000
,
0310
0000
0100
1000
0010
0000
1000
0100
0001
0010
1000
0001
0200
0000
0302
0000
,
1003
0000
0001
0010
1000
0000
0100
0010
0001
0100
1000
0010
0002
0000
0203
0000
,
0310
0000
0000
0000
0010
0000
0000
0000
1000
0001
1000
0001
2000
0000
0000
0000
,
3010
0000
0000
1000
0100
0000
1000
0010
0100
0000
0001
0000
0011
0000
0001
1000
,
0100
0000
2200
0000
0300
0000
3010
1000
0001
1000
0010
0100
0001
0010
1000
0000
,
0100
0000
0010
0000
1000
0100
0001
0000
0101
0000
1100
0000
0011
0000
1010
0000
,
1002
0000
0000
1003
0100
0001
1000
0010
0002
0000
0100
0000
0013
0000
0000
0000
,
0010
1000
0010
0001
1000
0000
0100
0001
0100
0000
0000
0022
0030
0000
1003
0001
,
0010
1000
0010
0100
0001
0000
1000
0000
1001
0000
0110
0000
0100
0000
0001
0000
,
0101
0000
0000
0000
0110
0000
0010
0100
0010
0000
1000
0000
0001
0100
1000
0001
,
0100
0001
1000
0000
0011
0000
0101
0000
0010
0000
1000
0100
1000
0001
0010
0001
,
0100
0000
2020
0000
0030
0000
3010
0100
0001
0000
0101
0000
1010
0000
0110
0000
,
0011
0000
0100
0010
1000
0000
0001
0000
1001
0000
0110
0000
1010
0000
0000
0000
,
1100
1100
0100
0011
0011
0010
0110
1001
,
0010
0000
0000
1000
0100
0000
1000
0000
0001
0010
0001
1000
0010
0001
0100
0000
,
0001
0010
0001
0010
0001
0010
0001
0010
,
0100
1000
0100
1000
0100
1000
0100
1000
,
0010
0100
0010
0100
0010
0100
0010
0100
,
0001
1000
0001
1000
0001
1000
0001
1000
,
1100
0000
0000
1010
0000
0000
0011
0000
0000
0101
0000
0000
1001
0000
0110
0000
,
1010
0000
0000
0011
0000
0000
1001
0000
0000
1100
0000
0000
0101
0000
0110
0000
,
1001
0000
0000
0011
0000
0000
1100
0000
0000
0110
0000
0000
0101
0000
1010
0000
,
2002
0000
0000
0000
0000
0000
0003
3000
,
1100
0000
1000
0100
0010
0000
0001
0000
0100
0010
2000
0000
3020
0000
0230
0000
,
0301
0000
1000
0100
1000
0000
0001
0000
0010
0100
0002
0000
0203
0000
0320
0000
,
1030
0000
0010
0001
0010
0000
1000
0000
0100
0010
2000
0000
3002
0000
0103
0000
,
0110
0000
0000
1000
0100
1000
0001
0000
0100
0010
1000
0001
0010
0000
0001
0000
,
0101
0000
0001
0010
0100
0000
1000
0000
0100
0001
2000
0000
3002
0000
0103
0000
,
1001
0000
0010
1000
0001
0000
0100
0000
1000
0010
0002
0000
0023
0000
2030
0000
,
3100
0000
1000
0010
1000
0000
0100
0000
0001
0010
0200
0000
0320
0000
0031
0000
,
0021
0000
0000
0031
1000
0010
0100
0000
1000
0100
0001
1000
0002
0000
0023
0000
,
0031
0010
0001
0100
0010
0000
1000
0100
1000
0001
0100
0000
1010
0000
1010
0000
,
0100
0010
0001
1000
0010
0000
0100
0010
1000
0001
1000
0000
0011
0000
0011
0000
,
0100
0010
1000
0100
0001
0000
1000
0001
0010
0100
0010
0000
0110
0000
0110
0000
,
1000
0100
1000
0100
0010
0100
0010
0100
0010
0001
0010
0001
1000
0000
0000
0000
,
1000
0100
0010
0100
1000
0100
0010
0100
1000
0100
0010
0000
0101
0000
0101
0000
,
0001
0010
0100
0010
0001
0010
0100
0010
0001
0010
0100
0000
1100
0000
1100
0000
,
1000
0001
0010
0001
1000
0001
0010
0001
1000
0001
0010
0000
1001
0000
1001
0000
,
1100
0000
0011
0000
0000
0000
1001
0000
0000
0000
0100
0010
0220
0000
0300
0030
,
1100
0000
2002
0000
0000
3000
0013
0001
0100
0000
0011
0000
1100
0000
0110
0000
,
0101
0000
1000
0010
0001
0000
1001
0000
0110
0000
1100
0000
1001
0000
0000
0000
,
0110
0110
0100
1001
1001
0010
1100
0101
,
1000
0001
0011
0100
0110
0010
0101
0000
,
2200
0000
0000
0000
,
0000
0000
0000
0000
0000
0000
0000
0000
0000
0000
0000
0000
0000
0000
0000
0000
0000
0000
0000
0000
0000
0000
0000
0000
0000
0000
0000
0000
0000
0000
0000
0000
0000
0000
0000
0000
0300
0000
3000
1000
0000
0000
1000
0000
0000
0000
0000
0000
,
0000
0220
0000
0000
0000
0000
0000
0000
0000
0000
0030
0302
0000
0000
0000
0000
,
0003
0000
0000
0000
0000
0000
1100
0000
0000
0000
0000
0000
0000
0000
0000
0022
0000
0000
0000
0000
0000
0000
0000
0000
0000
0000
0000
0000
0000
0000
0000
0030
0000
0000
0000
0000
0203
0000
0000
0000
0000
0000
0300
0000
0000
0000
0000
1001
0000
0000
0000
0000
0000
0000
0000
0000
0000
0000
0000
0000
0000
0000
0000
0000
;
