#TITLE:On The Move;
#SUBTITLE:;
#ARTIST:Barthezz;
#TITLETRANSLIT:;
#SUBTITLETRANSLIT:;
#ARTISTTRANSLIT:;
#CREDIT:;
#BANNER:On The Move-bn.png;
#BACKGROUND:On The Move-bg.png;
#LYRICSPATH:;
#CDTITLE:;
#MUSIC:BARTHEZZ -ON THE MOVE.mp3;
#OFFSET:-0.078;
#SAMPLESTART:72.270;
#SAMPLELENGTH:12.000;
#SELECTABLE:YES;
#BPMS:0.000=142.820;
#STOPS:;
#BGCHANGES:0.000=On The Move.avi=1.000=1=1=0,
99999=-nosongbg-=1.000=0=0=0 // don't automatically add -songbackground-
;

//---------------dance-single - ----------------
#NOTES:
     dance-single:
     :
     Hard:
     9:
     0.496,0.591,0.188,0.068,0.428: // measure 1
0000
0000
0000
0000
,  // measure 2
0000
0000
0000
0000
,  // measure 3
0000
0000
0000
0000
,  // measure 4
0000
0000
0000
0000
,  // measure 5
0000
0000
0000
0000
,  // measure 6
1000
0000
0000
0000
0010
0000
0100
0000
0001
0000
0000
0000
1000
0000
0000
0100
,  // measure 7
0000
0000
0000
0010
0001
0000
0010
0000
0100
0000
1000
0000
0001
0100
0000
0001
,  // measure 8
0100
0000
0000
0000
0010
0000
1000
0000
0100
0000
0000
0000
0010
0000
0000
0001
,  // measure 9
1000
1010
0001
0101
,  // measure 10
1000
0000
0100
0000
0001
0000
0100
0000
1000
0000
0000
0000
1000
0000
0000
1000
,  // measure 11
0000
0000
0000
0001
0100
0000
0010
0000
0100
0000
0001
0000
0010
0100
0000
0010
,  // measure 12
0100
0000
0000
0000
1000
0000
0001
0000
0100
0000
0000
0000
0010
0000
0000
0010
,  // measure 13
0000
0000
0000
1000
0001
0000
1000
0000
0010
0000
0100
0000
0001
0010
0000
0001
,  // measure 14
0010
0000
0000
0000
0100
0000
1000
0000
0001
0000
0000
0000
0001
0000
0000
0001
,  // measure 15
0000
0000
0000
0100
1000
0000
0100
0000
0001
0000
0010
0000
0100
1000
0000
0100
,  // measure 16
1000
0000
0001
0100
1010
0000
1000
0100
,  // measure 17
0011
0101
1010
1100
,  // measure 18
2002
0000
0000
0000
,  // measure 19
0000
0000
0000
3003
,  // measure 20
0010
0000
0100
0000
,  // measure 21
0001
0000
1000
0100
,  // measure 22
0010
0000
0001
0000
,  // measure 23
1000
0000
0010
0100
,  // measure 24
0001
0000
1000
0000
,  // measure 25
0001
0000
1000
0010
,  // measure 26
0100
0000
0001
0000
,  // measure 27
1000
0000
0001
0010
,  // measure 28
0100
0000
0000
0000
1000
0000
0100
0000
1000
0000
0000
0001
0000
0000
0000
0100
,  // measure 29
0000
0000
0000
0001
0100
0000
0001
0000
1000
0000
0100
0000
0010
0001
0000
0001
,  // measure 30
0000
0000
0000
0000
0010
0000
0100
0000
1000
0000
0000
0001
0000
0000
0000
1000
,  // measure 31
0000
0000
0000
0000
1000
0000
0010
0000
0100
0000
0001
0010
0000
0010
0000
0010
,  // measure 32
0000
0000
0000
0000
0001
0000
1000
0000
0100
0000
0000
0010
0000
0000
0000
0001
,  // measure 33
0000
0000
0000
1000
0010
0000
1000
0000
0001
0000
0100
0000
0010
1000
0000
1000
,  // measure 34
0000
0000
0000
0000
0010
0000
0100
0000
0001
0000
0000
1000
0000
0000
0000
0100
,  // measure 35
0000
0000
0010
0000
0010
0001
0000
0001
1000
0000
1000
0010
0000
0010
0100
0000
,  // measure 36
0002
0100
0100
0100
,  // measure 37
2003
0100
0100
0100
,  // measure 38
3002
0010
0010
0010
,  // measure 39
2003
0010
0010
0010
,  // measure 40
3100
0000
0010
0000
0001
0000
0100
0000
1000
0000
0100
0000
0001
0000
0010
0100
,  // measure 41
0010
0000
0001
0000
1000
0000
0010
0000
0001
0000
0010
0000
1000
0000
0100
1000
,  // measure 42
0100
0000
0010
0000
0001
0000
1000
0010
1000
0000
0001
0000
0100
0000
0010
0100
,  // measure 43
0010
0000
1000
0000
0001
0000
0010
0000
0100
1000
0100
0000
0010
0001
0010
0001
,  // measure 44
0010
0000
0000
0000
0100
0000
1000
0000
0001
0000
0000
0100
0000
0000
0000
0101
,  // measure 45
0000
0000
0000
0001
1000
0000
1000
0000
0100
0000
0010
0000
0001
1000
0000
0001
,  // measure 46
1000
0000
0000
0000
0010
0000
0100
0000
0001
0000
0000
1000
0000
0000
0000
1100
,  // measure 47
0000
0000
0000
0100
0010
0000
0001
0000
1000
0000
0010
1000
0000
1000
0000
1000
,  // measure 48
0001
0000
0000
0000
1000
0000
0010
0000
0100
0000
0000
0001
0000
0000
0000
0101
,  // measure 49
0000
0000
0000
0100
0010
0000
1000
0000
0001
0000
0010
0000
0100
1000
0000
0100
,  // measure 50
1000
0000
0000
0000
0001
0000
0100
0000
0010
0000
0000
1000
0000
0000
0000
1010
,  // measure 51
0000
0000
0010
0000
0100
0001
0000
0001
1000
0001
0000
1000
0010
1000
0010
1000
,  // measure 52
0010
0000
0000
0000
0100
0000
0001
0000
1000
0000
0000
0100
0000
0000
0000
1100
,  // measure 53
0000
0000
0000
0100
0010
0000
0001
0000
1000
0000
0010
0000
0100
0001
0000
0001
,  // measure 54
0100
0000
0000
0000
0010
0000
1000
0000
0001
0000
0000
0010
0000
0000
0000
0011
,  // measure 55
0000
0000
0000
0010
0001
0000
1000
0000
0010
0000
0100
0001
0000
0001
0000
0001
,  // measure 56
0100
0000
0000
0000
0010
0000
1000
0000
0001
0000
0000
1000
0000
0000
0000
1001
,  // measure 57
0000
0000
0000
1000
0010
0000
0100
0000
0001
0000
1000
0000
0100
0010
0000
0010
,  // measure 58
0100
0000
0000
0000
1000
0000
0001
0000
0100
0000
0000
0010
0000
0000
0000
1010
,  // measure 59
0000
0000
1000
0000
0001
0100
0000
0100
1000
0000
1000
0100
0000
0100
0010
0000
,  // measure 60
1000
0000
0001
0000
0100
0000
0010
0000
1000
0000
0000
0000
0100
0000
0000
0010
,  // measure 61
0001
0000
0000
0000
1000
0000
0010
0000
0100
0000
0001
0000
1000
0100
0000
1000
,  // measure 62
0100
0000
0000
0000
0010
0000
0001
0000
1000
0000
0000
0000
0010
0000
0000
0100
,  // measure 63
0001
0000
0000
0000
1000
0000
0100
0000
0010
0000
0100
0000
1000
0001
0000
0001
,  // measure 64
1000
0000
0000
0000
0010
0000
0100
0000
0001
0000
0000
0000
1000
0000
0000
0100
,  // measure 65
0010
0000
0000
0000
0001
0000
1000
0000
0010
0000
1000
0000
0001
0100
0000
0001
,  // measure 66
0100
0000
0010
1000
1100
0000
0010
0001
,  // measure 67
0101
1001
0110
1010
,  // measure 68
0202
0000
0000
0000
,  // measure 69
0000
0000
0000
0000
,  // measure 70
0303
0000
0000
0000
;

//---------------dance-single - ----------------
#NOTES:
     dance-single:
     :
     Medium:
     6:
     0.366,0.413,0.274,0.120,0.000:
0000
0000
0000
0000
,
0000
0000
0000
0000
,
0000
0000
0000
0000
,
0000
0000
0000
0000
,
0000
0000
0000
0000
,
1000
0000
0001
0100
0001
0000
0001
0000
,
0001
1000
0100
0010
,
0001
0000
1000
0100
1000
0000
1000
0000
,
1000
1001
0101
1100
,
1001
0000
0001
0010
0001
0000
1000
0000
,
0100
0000
0010
0000
0001
0000
1000
0010
,
1000
0000
0001
0100
0001
0000
1000
0000
,
0100
0000
0010
0000
0001
0000
1000
0010
,
1000
0000
0001
0100
0001
0000
1000
0000
,
0100
0000
0010
0000
0001
0000
1000
0010
,
1000
0000
0001
0010
0001
0000
0100
0000
,
0010
1010
0100
0101
,
2002
0000
0000
0000
,
0000
0000
0000
3003
,
0010
0000
0010
0000
,
0010
0000
1000
0100
,
0010
0000
0010
0000
,
0010
0000
0001
0100
,
0010
0000
1000
0000
,
0010
0000
0100
0001
,
0010
0000
0001
0000
,
0010
0000
0100
1000
,
0001
0000
0100
0010
0100
0000
0001
0000
,
1001
0000
1100
0000
,
0011
0000
1000
0010
1000
0000
0001
0000
,
0101
0000
1010
0000
,
1001
0000
0100
0010
0100
0000
0001
0000
,
1001
0000
1000
0100
1000
0000
0001
0000
,
0011
0000
1100
0000
,
0101
1010
0101
1010
,
0002
0010
1000
0013
,
2000
0100
0001
3100
,
0002
0100
1000
0103
,
2000
0010
0001
3010
,
0100
0001
0100
0001
,
1000
0010
1000
0010
,
1000
0001
1000
0000
0001
0010
0001
0000
,
1000
0100
1000
0100
0010
0001
0010
0001
,
0100
0000
0010
1000
0010
0000
0100
0000
,
0001
1000
0100
0010
,
0001
0000
0100
0010
0100
0000
0001
0000
,
1000
1100
0100
0110
,
0010
0000
0001
0100
0001
0000
1000
0000
,
0100
0010
0100
1000
,
0001
0000
0100
0010
0100
0000
0001
0000
,
1000
1001
0001
0101
,
0100
0000
0010
1000
0010
0000
0100
0000
,
0001
0000
0010
0000
0100
0000
1000
0001
,
1000
0000
0001
0010
0001
0000
1000
0000
,
0100
0010
0001
1000
,
1001
0000
1000
0010
1000
0000
0001
0000
,
0100
0000
0010
0000
1000
0000
0001
0010
,
0001
0000
1000
0100
1000
0000
0001
0000
,
0100
0110
0010
1010
,
1000
0001
0100
0001
,
0002
0013
2000
3010
,
1000
0001
0100
0010
,
2000
3100
0002
0103
,
0001
0010
0010
0100
,
0200
1300
0020
0031
,
1000
0010
0100
0001
,
1001
1001
1001
1001
,
0220
0000
0000
0000
,
0000
0000
0000
0000
,
0330
0000
0000
0000
;

//---------------dance-single - ----------------
#NOTES:
     dance-single:
     :
     Easy:
     4:
     0.330,0.472,0.317,0.103,0.000:
0000
0000
0000
0000
,
0000
0000
0000
0000
,
0000
0000
0000
0000
,
0000
0000
0000
0000
,
0000
0000
0000
0000
,
1000
1000
1000
1000
,
0001
0001
0001
0001
,
0100
0100
0100
0100
,
0010
1010
0100
0101
,
1001
0001
0100
0010
,
0010
1000
0100
0010
,
0001
1000
0100
0010
,
0010
0001
1000
0100
,
1000
0001
0100
0010
,
0010
1000
0100
0010
,
0011
0000
1100
0000
,
1001
0101
1100
1001
,
0220
0000
0000
0000
,
0000
0000
0000
0330
,
0001
0000
1000
0000
,
0100
0000
0010
0010
,
0010
0000
0001
0000
,
1000
0000
0100
0100
,
0100
0000
0010
0000
,
0001
0000
1000
1000
,
1000
0000
0010
0000
,
0100
0000
0001
0001
,
0001
1000
0000
0100
,
0100
0100
0000
0010
,
0010
0010
0000
0001
,
0001
0001
0000
1000
,
0110
0001
1000
0100
,
0011
1000
0010
0100
,
0101
0000
1010
0000
,
1001
1001
0110
0110
,
0102
0100
0100
0103
,
2010
0010
0010
3010
,
1002
1000
1000
1003
,
0210
0010
0010
0310
,
0001
0010
0100
1000
,
0001
0010
0100
1000
,
0001
0001
1000
1000
,
0010
0000
0010
0000
0100
0000
0001
1000
,
1000
0010
0100
0001
,
1000
0100
0010
0010
,
0010
0001
1000
0010
,
0100
0001
1000
0001
,
0001
1000
0100
0010
,
0001
1000
0010
0010
,
0010
0100
0001
1000
,
0100
0010
0001
1000
,
1000
1010
0010
0110
,
0100
0101
2001
0001
,
3001
1100
0100
0110
,
0010
0011
1002
1000
,
1003
0100
0001
0100
,
1000
0100
0001
0010
,
0100
1000
0010
0001
,
0010
1000
0010
0001
,
0100
0010
0010
1000
,
1000
0001
0100
0010
,
1000
0001
0001
0010
,
0010
0100
1000
0001
,
0200
0010
0010
0310
,
2000
0001
0001
3001
,
0101
0000
1010
0000
,
1001
1001
1001
1001
,
0220
0000
0000
0000
,
0000
0000
0000
0000
,
0330
0000
0000
0000
;

//---------------dance-single - Copied from----------------
#NOTES:
     dance-single:
     Copied from:
     Beginner:
     2:
     0.175,0.315,0.223,0.051,0.000:
0000
0000
0000
0000
,
0000
0000
0000
0000
,
0000
0000
0000
0000
,
0000
0000
0000
0000
,
0000
0000
0000
0000
,
1000
0000
0000
0000
,
1000
0000
0000
0000
,
0001
0000
0000
0000
,
0100
0100
0100
0100
,
0010
0000
0010
0000
,
1000
0000
1000
0000
,
0001
0000
0001
0000
,
0010
0000
0010
0000
,
0110
0000
0000
0000
,
1001
0000
0000
0000
,
0110
0000
0110
0000
,
1001
1001
1001
1001
,
1001
0000
0000
0000
,
0000
0000
0000
0000
,
1000
0000
0000
0000
,
0001
0000
0000
0000
,
0100
0000
0000
0000
,
0010
0000
0000
0000
,
1000
0000
0000
0000
,
0001
0000
0000
0000
,
1000
0000
0000
0000
,
0001
0000
0000
0000
,
0000
0010
0000
0010
,
0000
1000
0000
1000
,
0000
0001
0000
0001
,
0000
0100
0000
0100
,
0000
0001
0001
0001
,
0000
1000
1000
1000
,
0000
0100
0100
0100
,
0000
0010
0010
0010
,
0001
0000
0000
0000
,
1000
0000
0000
0000
,
0010
0000
0000
0000
,
0100
0000
0000
0000
,
1001
0000
0000
0000
,
0110
0000
0000
0000
,
1001
0000
0110
0000
,
1001
1001
1001
1001
,
0001
0000
0001
0000
,
0002
0000
0003
0000
,
1000
0000
1000
0000
,
2000
0000
3000
0000
,
0010
0000
0010
0000
,
0020
0000
0030
0000
,
0100
0000
0100
0000
,
0200
0000
0300
0000
,
0001
0001
0001
0000
,
0001
0000
0001
0000
,
1000
1000
1000
0000
,
1000
0000
1000
0000
,
0100
0100
0100
0000
,
0100
0000
0100
0000
,
0010
0010
0010
0000
,
0010
0000
0010
0000
,
0001
0000
1000
0000
,
0002
0003
0000
0000
,
1000
0000
0001
0000
,
2000
3000
0000
0000
,
0110
0000
0000
0000
,
1001
0000
0000
0000
,
0110
0000
1001
0000
,
0110
0110
0110
0110
,
1001
0000
0000
0000
;

//---------------dance-double - Copied from----------------
#NOTES:
     dance-double:
     Copied from:
     Easy:
     4:
     0.308,0.443,0.214,0.231,0.000:
00000000
00000000
00000000
00000000
,
00000000
00000000
00000000
00000000
,
00000000
00000000
00000000
00000000
,
00000000
00000000
00000000
00000000
,
00000000
00000000
00000000
00000000
,
10000000
00100000
01000000
00010000
,
00010000
00100000
00001000
00010000
,
00010000
00001000
00000010
00000001
,
00000002
00000203
00000320
00002030
,
00003100
00010000
00001000
00010000
,
00010000
00100000
10000000
01000000
,
01000000
00100000
00010000
01000000
,
01000000
00001000
00010000
00001000
,
00200000
00301000
00010000
00001000
,
00200000
00301000
00010000
00001000
,
00000200
00000301
00002000
00003010
,
00010010
00010010
00011000
00011000
,
00202000
00000000
00000000
00000000
,
00000000
00000000
00000000
00303000
,
01000000
00000000
10000000
00000000
,
01000000
00000000
00000010
00001000
,
00000100
00000000
00010000
00000000
,
00100000
00000000
10000000
00010000
,
01000000
00000000
00001000
00000000
,
00100000
00000000
00001000
01000000
,
00100000
00000000
10000000
00000000
,
00010000
00000000
00100000
01000000
,
10000000
00010000
00000000
01000000
,
00000000
00001000
00000000
00000010
,
00000000
00000001
00000000
00000001
,
00000000
00001000
00000000
00001000
,
00001010
00000000
00000000
00000000
,
00000101
00000000
00000000
00000000
,
00001100
00000000
00010100
00000000
,
00011000
00011000
01001000
01001000
,
00022000
00000000
00000000
00000000
,
00000000
00000000
00000000
00000000
,
00000000
00000000
00000000
00000000
,
00000000
00000000
00000000
00033000
,
00001000
00000010
00000001
00000001
,
00001000
00000010
00010000
00010000
,
00002000
01003000
00200000
10300000
,
00020000
00230000
00302000
00023000
,
00031000
00000010
00000001
00000100
,
00000010
00001000
00001100
00000100
,
00000100
00000010
00000001
00000100
,
00000010
00001000
00010100
00010000
,
00010000
00100000
10000000
01000000
,
00100000
00010000
01010000
01000000
,
01000000
00100000
10000000
00010000
,
00100000
00001000
01001000
01000000
,
01000000
00001000
00000010
00000001
,
00000100
00000010
00002000
00000100
,
00003100
00010000
00000010
00010000
,
00001000
01000000
20000000
01000000
,
31000000
00010000
00100000
01000000
,
10000000
00010000
00200000
00001000
,
00301000
00000010
00000001
00000100
,
00000010
00000010
00010000
00010000
,
00001000
00000010
00000001
00000100
,
00000010
00001000
00000100
00010000
,
00001000
00010000
00100000
10000000
,
01000000
00100000
00010000
01000000
,
00200000
10300000
00010000
01000000
,
00002000
00013000
00001000
00000010
,
00000102
00001003
00020100
00031000
,
01010000
01010000
00101000
00101000
,
00022000
00000000
00000000
00000000
,
00000000
00000000
00000000
00000000
,
00033000
00000000
00000000
00000000
;

//---------------dance-double - Copied from----------------
#NOTES:
     dance-double:
     Copied from:
     Medium:
     6:
     0.341,0.413,0.214,0.094,0.000:
00000000
00000000
00000000
00000000
,
00000000
00000000
00000000
00000000
,
00000000
00000000
00000000
00000000
,
00000000
00000000
00000000
00000000
,
00000000
00000000
00000000
00000000
,
10000000
00100000
01000000
00010000
,
00100000
00010000
00010000
01000000
,
01000000
00001000
00000010
00000001
,
00000100
00000100
00000100
00000100
,
00001010
00001000
00000100
00001000
,
00000010
00010000
00001000
01000000
,
01000000
10000000
01000000
00010000
,
00100000
01000000
10000000
00010000
,
01010000
01000000
00001000
00010000
,
00011000
00001000
00000010
00000001
,
00000101
00000010
00001100
00010000
,
00011000
01001000
01100000
10010000
,
02002000
00000000
00000000
00000000
,
00000000
00000000
00000000
03003000
,
00100000
00000000
10000000
00000000
,
00010000
00000000
01000000
00001000
,
00010000
00000000
00001000
00000000
,
00000010
00000000
00000001
00000100
,
00000010
00000000
00001000
00000000
,
00000100
00000000
00010000
00000010
,
00001000
00000000
00000010
00000000
,
00010000
00000000
00001000
01000000
,
00100000
10000000
00000000
00010000
,
00000000
01000000
00001000
00100000
,
00000000
00001000
00000000
00000010
,
00000000
00000001
00000100
00000010
,
00001010
00010000
00001000
00010000
,
00110000
10000000
00010000
01000000
,
10100000
00010000
00110000
10000000
,
10010000
10010000
01001000
01001000
,
00002000
00010000
00010000
00013000
,
00020000
00100000
00100000
00130000
,
00200000
10000000
10000000
10300000
,
20000000
01000000
01000000
31000000
,
00100000
00000000
00010000
00000000
01000000
00000000
00001000
00010000
,
00001000
00000000
00000010
00000000
00000001
00000000
00000100
00000010
,
00000100
00000000
00000001
00001000
00000001
00000000
00001000
00000100
,
00001000
00000000
00000010
00000000
00010000
00001000
00010000
00001000
,
00010000
01000000
00100000
10000000
,
00010000
00000000
00100000
00000000
00010000
00000000
01000000
00100000
,
01000000
00010000
00100000
00001000
,
00000010
00000000
00000001
00000000
00000100
00000000
00000010
00001000
,
00000010
00000100
00001000
00000100
,
00000010
00000000
00001000
00000000
00000100
00000000
00010000
00001000
,
00010000
00001000
00000010
00000001
,
00000100
00000000
00000010
00000000
00001000
00000000
00000100
00001000
,
00000100
00000010
00000001
00001000
,
00000100
00000000
00010000
00000010
00010000
00000000
00001000
00010000
,
00001000
01000000
00100000
10000000
,
00010000
00000000
01000000
00100000
01000000
00000000
00010000
00100000
,
00010000
01000000
00001000
00000010
,
00000001
00000000
00000100
00000010
00000100
00000000
00000001
00001000
,
00000001
00001000
00000100
00010000
,
00002000
01000000
01000000
01003000
,
00100000
00000000
10000000
00010000
10000000
00000000
00010000
00000000
,
00100000
00010000
00010000
01000000
,
01000000
00000000
00001000
00010000
00001000
00000000
00000010
00000000
,
00000001
00000100
00000100
00000010
,
00000020
00001030
00000100
00010000
,
00002000
01003000
00100000
10000000
,
00110000
10000000
01010000
00001000
,
00011000
00010100
00000110
00000011
,
00002002
00000000
00000000
00000000
,
00000000
00000000
00000000
00000000
,
00003003
00000000
00000000
00000000
;

//---------------dance-double - Copied from----------------
#NOTES:
     dance-double:
     Copied from:
     Hard:
     9:
     0.495,0.561,0.205,0.068,0.419:
00000000
00000000
00000000
00000000
,
00000000
00000000
00000000
00000000
,
00000000
00000000
00000000
00000000
,
00000000
00000000
00000000
00000000
,
00000000
00000000
00000000
00000000
,
00010000
00000000
00000000
00000000
00100000
00000000
01000000
00000000
10000000
00000000
00000000
00000000
00100000
00000000
00000000
01000000
,
00010000
00000000
00000000
00000000
00100000
00000000
01000000
00000000
10000000
00000000
00010000
00000000
01000000
00001000
00000000
00010000
,
00001000
00000000
00000000
00000000
00000010
00000000
00000001
00000000
00000100
00000000
00000000
00000000
00000010
00000000
00000000
00001000
,
00000100
00000110
00001001
00010010
,
00011000
00000000
00000000
00000000
01000000
00000000
00100000
00000000
10000000
00000000
00000000
00000000
00010000
00000000
00000000
00100000
,
01000000
00000000
00000000
00000000
00100000
00000000
00001000
00000000
01000000
00000000
00100000
00000000
01000000
00010000
00000000
00010000
,
00100000
00000000
00000000
00000000
00001000
00000000
01000000
00000000
00100000
00000000
00000000
00000000
10000000
00000000
00000000
00010000
,
00100000
00000000
00000000
00000000
00010000
00000000
01000000
00000000
00001000
00000000
00010000
00000000
00001000
00000010
00000000
00000010
,
00001000
00000000
00000000
00000000
00000010
00000000
00000001
00000000
00000100
00000000
00000000
00000000
00000010
00000000
00000000
00001000
,
00000100
00000000
00000000
00000000
00001000
00000000
00000010
00000000
00001000
00000000
00000100
00000000
00010000
00001000
00000000
00001000
,
00010000
00000000
00000000
00000000
00001000
00000000
00000010
00000000
00000001
00000000
00000000
00000000
00000100
00000000
00000000
00000010
,
00001000
00001100
00010100
00011000
,
02002000
00000000
00000000
00000000
,
00000000
00000000
00000000
03003000
,
00100000
00000000
10000000
00000000
,
01000000
00000000
00100000
00001000
,
00010000
00000000
00001000
00000000
,
01000000
00000000
00100000
01000000
,
00001000
00000000
00010000
00000000
,
00001000
00000000
00000010
00000001
,
00000100
00000000
00000010
00000000
,
00001000
00000000
00000100
00010000
,
00001000
00000000
00000000
00000000
01000000
00000000
00010000
00000000
01000000
00000000
00000000
00001000
00000000
00000000
00000000
00101000
,
00000000
00000000
00000000
00001000
00000010
00000000
00000001
00000000
00000100
00000000
00000010
00000000
00001000
00000100
00000000
00000100
,
00000000
00000000
00000000
00000000
00001000
00000000
00000010
00000000
00001000
00000000
00000000
00000100
00000000
00000000
00000000
00010100
,
00000000
00000000
00000000
00000000
00010000
00000000
00000010
00000000
00010000
00000000
00001000
01000000
00000000
01000000
00000000
01000000
,
00000000
00000000
00000000
00000000
00010000
00000000
00100000
00000000
10000000
00000000
00000000
00100000
00000000
00000000
00000000
00110000
,
00000000
00000000
00000000
00010000
01000000
00000000
00100000
00000000
01000000
00000000
00010000
00000000
00100000
00001000
00000000
00001000
,
00000000
00000000
00000000
00000000
01000000
00000000
00100000
00000000
01000000
00000000
00000000
00001000
00000000
00000000
00000000
00101000
,
00000000
00000000
00001000
00000000
01000000
00100000
00000000
00100000
10000000
00000000
10000000
00010000
00000000
00010000
00100000
00000000
,
02000000
10000000
00010000
13000000
,
00200000
00001000
01000000
00301000
,
00020000
00100000
00000010
00130000
,
00000200
00000001
00010000
00000301
,
00000010
00000000
00000001
00000000
00000100
00000000
00000010
00000000
00001000
00000000
00000100
00000000
00010000
00000000
00000010
00001000
,
00000010
00000000
00000100
00000000
00001000
00000000
00000100
00000000
00000010
00000000
00010000
00000000
00001000
00000000
01000000
00010000
,
01000000
00000000
00100000
00000000
10000000
00000000
01000000
10000000
01000000
00000000
00100000
00000000
00010000
00000000
01000000
00000000
,
00001000
00010000
00001000
00000000
01000000
00100000
01000000
00000000
00001000
00010000
00001000
00010000
00001000
00000000
00000010
00000000
,
00000001
00000000
00000000
00000000
00000100
00000000
00000010
00000000
00001000
00000000
00000000
00000100
00000000
00000000
00000000
00010100
,
00000000
00000000
00000000
00010000
00000010
00000000
00010000
00000000
00001000
00000000
01000000
00000000
00100000
10000000
00000000
00100000
,
10000000
00000000
00000000
00000000
00010000
00000000
00100000
00000000
01000000
00000000
00000000
10000000
00000000
00000000
00000000
10010000
,
00000000
00000000
00000000
10000000
00100000
00000000
01000000
00000000
00010000
00000000
00100000
00001000
00000000
00001000
00000000
00001000
,
00010000
00000000
00000000
00000000
00001000
00000000
00000010
00000000
00000001
00000000
00000000
00000100
00000000
00000000
00000000
00001010
,
00000000
00000000
00000000
00000001
00000010
00000000
00000100
00000000
00001000
00000000
00000010
00000000
00010000
00001000
00000000
00010000
,
00001000
00000000
00000000
00000000
00000010
00000000
00001000
00000000
00010000
00000000
00000000
00100000
00000000
00000000
00000000
10100000
,
00000000
00000000
10000000
00000000
00010000
01000000
00000000
00010000
10000000
00010000
00000000
10000000
00100000
10000000
00100000
10000000
,
00100000
00000000
00000000
00000000
01000000
00000000
00010000
00000000
00100000
00000000
00000000
00001000
00000000
00000000
00000000
01001000
,
00000000
00000000
00000000
00001000
00000010
00000000
00001000
00000000
00010000
00000000
00100000
00000000
10000000
00010000
00000000
10000000
,
00010000
00000000
00000000
00000000
00100000
00000000
00010000
00000000
01000000
00000000
00000000
00001000
00000000
00000000
00000000
00011000
,
00000000
00000000
00000000
00000000
00010000
00000000
00100000
00000000
10000000
00000000
01000000
00100000
00000000
00100000
00000000
00100000
,
00010000
00000000
00000000
00000000
00100000
00000000
00001000
00000000
00010000
00000000
00000000
00001000
00000000
00000000
00000000
00001010
,
00000000
00000000
00000000
00000001
00000100
00000000
00000010
00000000
00001000
00000000
00000100
00000000
00000010
00000001
00000000
00000010
,
00000001
00000000
00000000
00000000
00001000
00000000
00000010
00000000
00010000
00000000
00000000
00001000
00000000
00000000
00000000
01001000
,
00000000
00000000
01000000
00000000
00100000
10000000
00000000
10000000
00010000
00000000
00010000
00100000
00000000
00100000
01000000
00000000
,
10000000
00000000
00000000
00000000
00010000
00000000
01000000
00000000
00100000
00000000
00000000
00000000
10000000
00000000
00000000
00010000
,
00100000
00000000
00000000
00000000
00010000
00000000
01000000
00000000
00100000
00000000
01000000
00000000
00001000
00010000
00000000
00001000
,
00010000
00000000
00000000
00000000
00001000
00000000
00000010
00000000
00000001
00000000
00000000
00000000
00000100
00000000
00000000
00000010
,
00001000
00000000
00000000
00000000
00000100
00000000
00010000
00000000
00000010
00000000
00010000
00001000
00000000
00010000
00000000
00001000
,
01000000
00000000
00000000
00000000
10000000
00000000
01000000
00000000
00010000
00000000
00000000
00000000
00100000
00000000
00000000
00001000
,
00010000
00000000
00000000
00000000
00001000
00000000
00000010
00000000
00000001
00000000
00000100
00000000
00000010
00001000
00000000
00000100
,
00001000
00000000
00000000
00000000
00000010
00000000
00001000
00000000
00000100
00000000
00000000
00000000
00010000
00000000
00000000
00001000
,
01000000
10100000
01010000
10010000
,
00002002
00000000
00000000
00000000
,
00000000
00000000
00000000
00000000
,
00003003
00000000
00000000
00000000
;
