#TITLE:some dance like marshmallow and cream;
#ARTIST:e music;
#BANNER:some dance like marshmallow and cream-bn.png;
#BACKGROUND:some dance like marshmallow and cream-bg.png;
#GENRE:trance;
#CREDIT:a4bb 0101;
#SAMPLESTART:1.22;
#SAMPLELENGTH:15;
#OFFSET:-0.030;
#MUSIC:some dance like marshmallows and cream - E music.mp3;
#SAMPLESTART:00.040;
#SAMPLELENGTH:17.280;
#BPMS:0.000=140.00,32.000=280.000;

//---------------dance-single - a4bb 0101----------------
#NOTES:
     dance-single:
     a4bb 0101:
     challenge:
     10:
     0,0,0,0:
0000
0000
0000
0000
,
0000
0000
0000
0000
,
0000
0000
0000
0000
,
0000
0000
0000
0000
,
0011
0010
0011
0010
0011
0010
0110
0100
,
1100
0100
1100
0100
1100
0100
1100
0100
,
0011
0010
0011
0010
0011
0010
0110
0100
,
1100
0000
1100
0000
1100
0000
1100
0000
1100
0000
1100
0000
1100
0000
1100
1100
,
0001
0010
0100
0010
0100
0010
0100
1000
,
0100
0010
0001
0010
1000
0100
0010
0001
,
0100
0001
0100
0001
1000
0010
1000
0010
,
1000
0100
0010
0001
0010
0100
1000
0001
,
0100
0000
0001
0100
0010
0000
0110
0MM0
,
1000
0000
0001
0100
1000
0000
0110
0000
,
1000
0000
0001
0010
0100
0000
0011
00MM
,
1000
0000
0100
1000
0100
0000
1100
0000
,
0001
0010
0100
0010
0100
0010
0100
1000
,
0100
0010
0001
0010
1000
0100
0010
0001
,
0100
0001
0100
0001
1000
0010
1000
0010
,
1000
0100
0010
0001
0010
0100
1000
0001
,
0100
0000
0001
0100
0010
0000
0110
0MM0
,
1000
0000
0001
0100
1000
0000
0110
0000
,
1000
0000
0001
0010
0100
0000
0011
00MM
,
1000
0000
0100
1000
0100
0000
1100
0000
,
0001
0010
0100
0010
0001
0010
0100
1000
,
0100
0010
0100
1000
0100
0010
1000
0001
,
0010
1000
0010
0100
0001
0010
1000
0100
,
1000
0100
0001
0100
0001
0010
1000
0001
,
1000
0000
0001
0100
1000
0000
0110
0MM0
,
0010
0000
0001
0010
0001
0000
0110
0000
,
1000
0000
1000
0100
0010
0000
0110
0MM0
,
0001
0000
0100
0001
1000
0000
0110
0000
,
0001
0010
0100
0010
0001
0010
0100
1000
,
0100
0010
0100
1000
0100
0010
1000
0001
,
0010
1000
0010
0100
0001
0010
1000
0100
,
1000
0100
0001
0100
0001
0010
1000
0001
,
1000
0000
0001
0100
1000
0000
0110
0MM0
,
0010
0000
0001
0010
0001
0000
0110
0000
,
1000
0000
1000
0100
0010
0000
0110
0MM0
,
0001
0000
0100
0001
1000
0000
0110
0000
,
0001
0100
0000
0100
0010
0000
0010
0100
,
0000
1000
0100
0000
0100
1000
0000
0100
,
0010
0000
0010
0000
0100
0000
0100
0001
,
0000
0001
0010
0000
0010
1000
0100
1000
,
0001
0100
0000
0100
0010
0000
0010
0100
,
0000
1000
0100
0000
0100
1000
0000
0100
,
0010
0000
0010
0000
0100
0000
0100
0001
,
0000
0001
0010
0000
0010
1000
0100
1000
,
0001
0100
0000
0100
0010
0000
0010
0100
,
0000
1000
0100
0000
0100
1000
0000
0100
,
0010
0000
0010
0000
0100
0000
0100
0001
,
0000
0001
0010
0000
0010
1000
0100
1000
,
0001
0100
0000
0100
0010
0000
0010
0100
,
0000
1000
0100
0000
0100
1000
0000
0100
,
0010
0000
0010
0000
0100
0000
0100
0001
,
0000
0000
0001
0000
0010
0000
0000
0000
0010
0000
2000
0000
0200
0020
3330
0000
,
MMMM
M000
M000
MMMM
0000
M0MM
MM00
M000
M000
0000
MMMM
M000
,
MMMM
M000
MMMM
0000
MMMM
000M
MMMM
MMMM
0000
0000
0M0M
M0M0
,
M0M0
M0M0
M0M0
M0M0
0000
0000
0000
0000
0000
0000
0000
0000
,
0001
0010
0001
0010
010M
1000
0100
1000
,
0100
M010
0001
0010
0100
1000
0100
0010
,
0100
0010
0001
0010
1000
0M10
0001
1M00
,
0001
0010
0100
1000
0001
0010
0100
100M
,
0001
1000
0010
0100
0001
1000
0010
0100
,
1000
0100
0010
0001
0010
0100
1000
0100
,
0001
0010
0001
0010
0001
0010
0001
0100
,
0001
1000
0100
0010
0001
1000
0010
0100
,
0001
0010
0001
0010
010M
1000
0100
1000
,
0100
M010
0001
0010
0100
1000
0100
0010
,
0100
0010
0001
0010
1000
0M10
0001
1M00
,
0001
0010
0100
1000
0001
0010
0100
100M
,
0001
1000
0010
0100
0001
1000
0010
0100
,
1000
0100
0010
0001
0010
0100
1000
0100
,
0001
0010
0001
0010
0001
0010
0001
0100
,
0001
1000
0100
0010
0001
1000
0010
0100
,
0001
001M
0001
0100
0001
001M
0001
1000
,
010M
0M10
1000
0010
0001
010M
1000
001M
,
1000
0100
0010
0001
0010
0100
1000
0010
,
0100
0001
0010
1000
0100
1000
0010
0001
,
0001
001M
0001
0100
0001
001M
0001
1000
,
010M
0M10
1000
0010
0001
010M
1000
001M
,
1000
0100
0010
0001
0010
0100
1000
0010
,
0100
0001
0010
1000
0100
1000
0010
0001
,
0001
001M
0001
0100
0001
001M
0001
1000
,
010M
0M10
1000
0010
0001
010M
1000
001M
,
1000
0100
0010
0001
0010
0100
1000
0010
,
0100
0001
0010
1000
0100
1000
0010
0001
,
0001
001M
0001
0100
0001
001M
0001
1000
,
010M
0M10
1000
0010
0001
010M
1000
001M
,
1000
0100
0010
0001
0010
0100
1000
0010
,
0100
0001
0010
1000
0100
1000
0010
0001
,
1MM1
0000
0010
0000
0100
0000
0001
1MM1
,
MM11
0000
0100
0000
0010
0000
0001
1M1M
,
1M1M
0000
0100
0000
0010
0000
1000
M11M
,
M1M1
0000
0010
0000
0100
0000
1000
MM11
,
1MM1
0000
0010
0000
0100
0000
0001
1MM1
,
MM11
0000
0100
0000
0010
0000
0001
1M1M
,
1M1M
0000
0100
0000
0010
0000
1000
M11M
,
M1M1
0000
0010
0000
0100
0000
1000
MM11
,
1MM1
0000
0010
0000
0100
0000
0001
1MM1
,
MM11
0000
0100
0000
0010
0000
0001
1M1M
,
1M1M
0000
0100
0000
0010
0000
1000
M11M
,
M1M1
0000
0010
0000
0100
0000
1000
MM11
,
1MM1
0000
0010
0000
0100
0000
0001
1MM1
,
MM11
0000
0100
0000
0010
0000
0001
1M1M
,
1M1M
0000
0100
0000
0010
0000
1000
M11M
,
M1M1
0000
0000
0000
0010
0000
0000
0000
0100
MMMM
0001
0010
0001
0010
0001
0010
;

//---------------dance-double - a4bb 0101----------------
#NOTES:
     dance-double:
     a4bb 0101:
     challenge:
     14:
     0,0,0,0:
00000000
00000000
00000000
00000000
,
00000000
00000000
00000000
00000000
,
00000000
00000000
00000000
00000000
,
00000000
00000000
00000000
00000000
,
00110000
00100000
00110000
001M0000
00000011
0000001M
00000110
00100101
,
11000000
01000000
11000000
01000000
00001100
00000100
00001100
00000100
,
00110000
00100000
00110000
00100000
00000011
00000010
00000110
00000100
,
11000000
00000000
11000000
00000000
00001100
00000000
00001100
00000000
00110000
00000000
00110000
00000000
00000011
00000000
00000011
00000011
,
00010000
00100000
01000000
00000010
00000100
00001000
00100000
00010000
,
01000000
00100000
00010000
00000010
00001000
00000100
00000010
00000001
,
00000100
00000001
00000100
00000001
10000000
00100000
10000000
00100000
,
00001000
00000100
00000010
00000001
00100000
01000000
10000000
00010000
,
01000000
00000000
00010000
01000000
00000010
00000000
00000110
00000MM0
,
10000000
00000000
00010000
01000000
00001000
00000000
01100000
00000000
,
10000000
00000000
00010000
00100000
00000100
00000000
00000011
000000MM
,
00001000
00000000
00000100
00001000
01000000
00000000
11000000
00000000
,
00010000
00100000
01000000
00000010
00000100
00001000
00100000
00010000
,
01000000
00100000
00010000
00000010
00001000
00000100
00000010
00000001
,
00000100
00000001
00000100
00000001
10000000
00100000
10000000
00100000
,
00001000
00000100
00000010
00000001
00100000
01000000
10000000
00010000
,
01000000
00000000
00010000
01000000
00000010
00000000
00000110
00000MM0
,
10000000
00000000
00010000
01000000
00001000
00000000
01100000
00000000
,
10000000
00000000
00010000
00100000
00000100
00000000
00000011
000000MM
,
00001000
00000000
00000100
00001000
01000000
00000000
11000000
00000000
,
00010000
00100000
01000000
00000010
00000001
00000010
00000100
00001000
,
00000100
00000010
00000100
00001000
01000000
00100000
10000000
00010000
,
00100000
10000000
00100000
01000000
00000001
00000010
00001000
00000100
,
10000000
01000000
00010000
01000000
00010000
00100000
10000000
00010000
,
10000000
00000000
00010000
01000000
00001000
00000000
01100000
00000MM0
,
00100000
00000000
00010000
00100000
00000001
00000000
00000110
00000000
,
10000000
00000000
10000000
01000000
00000010
00000000
00000110
00000MM0
,
00010000
00000000
01000000
00010000
00001000
00000000
01100000
00000000
,
00010000
00100000
01000000
00000010
00000001
00000010
00000100
00001000
,
00000100
00000010
00000100
00001000
01000000
00100000
10000000
00010000
,
00100000
10000000
00100000
01000000
00000001
00000010
00001000
00000100
,
10000000
01000000
00010000
01000000
00010000
00100000
10000000
00010000
,
10000000
00000000
00010000
01000000
00001000
00000000
01100000
00000MM0
,
00100000
00000000
00010000
00100000
00000001
00000000
00000110
00000000
,
10000000
00000000
10000000
01000000
00000010
00000000
00000110
00000MM0
,
00010000
00000000
01000000
00010000
00001000
00000000
01100000
00000000
,
00010000
01000000
00000000
01000000
00000010
00000000
00100000
01000000
,
00000000
00001000
00000100
00000000
01001000
00000000
00000100
00000000
,
00100000
00000000
00100000
00000000
00000100
00000000
00000100
00000001
,
00000000
00000001
00000010
00000000
00000010
00001000
00000100
00001000
,
00010000
01000000
00000000
01000000
00000010
00000000
00100000
01000000
,
00000000
00001000
00000100
00000000
01001000
00000000
00000100
00000000
,
00100000
00000000
00100000
00000000
00000100
00000000
00000100
00000001
,
00000000
00000001
00000010
00000000
00000010
00001000
00000100
00001000
,
00010000
01000000
00000000
01000000
00000010
00000000
00100000
01000000
,
00000000
00001000
00000100
00000000
01001000
00000000
00000100
00000000
,
00100000
00000000
00100000
00000000
00000100
00000000
00000100
00000001
,
00000000
00000001
00000010
00000000
00000010
00001000
00000100
00001000
,
00010000
01000000
00000000
01000000
00000010
00000000
00100000
01000000
,
00000000
00001000
00000100
00000000
01001000
00000000
00000100
00000000
,
00100000
00000000
00100000
00000000
00000100
00000000
00000100
00000001
,
00000000
00000000
00000001
00000000
00000010
00000000
00000000
00000000
00000010
00000000
20000000
00000000
00000200
00000020
00003330
00000000
,
MMMMMMMM
M0000000
M0000000
MMMMMMMM
00000000
M0MM0000
MM000000
M0000000
M0000000
00000000
MMMMMMMM
M0000000
,
MMMMMMMM
M0000000
MMMMMMMM
00000000
MMMMMMMM
000M0000
MMMMMMMM
MMMMMMMM
00000000
00000000
0M0MM0M0
M0M0M0M0
,
M0M0M0M0
M0M0M0M0
M0M0M0M0
M0M0M0M0
00000000
00000000
00000000
00000000
00000000
00000000
00000000
00000000
,
00010001
00100010
00010001
00100010
010M010M
10001000
01000100
10001000
,
01000100
M010M010
00010001
00100010
01000100
10001000
01000100
00100010
,
01000100
00100010
00010001
00100010
10001000
0M100M10
00010001
1M001M00
,
00010001
00100010
01000100
10001000
00010001
00100010
01000100
100M100M
,
00010001
10001000
00100010
01000100
00010001
10001000
00100010
01000100
,
10001000
01000100
00100010
00010001
00100010
01000100
10001000
01000100
,
00010001
00100010
00010001
00100010
00010001
00100010
00010001
01000100
,
00010001
10001000
01000100
00100010
00010001
10001000
00100010
01000100
,
00010001
00100010
00010001
00100010
010M010M
10001000
01000100
10001000
,
01000100
M010M010
00010001
00100010
01000100
10001000
01000100
00100010
,
01000100
00100010
00010001
00100010
10001000
0M100M10
00010001
1M001M00
,
00010001
00100010
01000100
10001000
00010001
00100010
01000100
100M100M
,
00010001
10001000
00100010
01000100
00010001
10001000
00100010
01000100
,
10001000
01000100
00100010
00010001
00100010
01000100
10001000
01000100
,
00010001
00100010
00010001
00100010
00010001
00100010
00010001
01000100
,
00010001
10001000
01000100
00100010
00010001
10001000
00100010
01000100
,
00010001
001M001M
00010001
01000100
00010001
001M001M
00010001
10001000
,
010M010M
0M100M10
10001000
00100010
00010001
010M010M
10001000
001M001M
,
10001000
01000100
00100010
00010001
00100010
01000100
10001000
00100010
,
01000100
00010001
00100010
10001000
01000100
10001000
00100010
00010001
,
00010001
001M001M
00010001
01000100
00010001
001M001M
00010001
10001000
,
010M010M
0M100M10
10001000
00100010
00010001
010M010M
10001000
001M001M
,
10001000
01000100
00100010
00010001
00100010
01000100
10001000
00100010
,
01000100
00010001
00100010
10001000
01000100
10001000
00100010
00010001
,
00010001
001M001M
00010001
01000100
00010001
001M001M
00010001
10001000
,
010M010M
0M100M10
10001000
00100010
00010001
010M010M
10001000
001M001M
,
10001000
01000100
00100010
00010001
00100010
01000100
10001000
00100010
,
01000100
00010001
00100010
10001000
01000100
10001000
00100010
00010001
,
00010001
001M001M
00010001
01000100
00010001
001M001M
00010001
10001000
,
010M010M
0M100M10
10001000
00100010
00010001
010M010M
10001000
001M001M
,
10001000
01000100
00100010
00010001
00100010
01000100
10001000
00100010
,
01000100
00010001
00100010
10001000
01000100
10001000
00100010
00010001
,
1MM11MM1
00000000
00100010
00000000
01000100
00000000
00010001
1MM11MM1
,
MM11MM11
00000000
01000100
00000000
00100010
00000000
00010001
1M1M1M1M
,
1M1M1M1M
00000000
01000100
00000000
00100010
00000000
10001000
M11MM11M
,
M1M1M1M1
00000000
00100010
00000000
01000100
00000000
10001000
MM11MM11
,
1MM11MM1
00000000
00100010
00000000
01000100
00000000
00010001
1MM11MM1
,
MM11MM11
00000000
01000100
00000000
00100010
00000000
00010001
1M1M1M1M
,
1M1M1M1M
00000000
01000100
00000000
00100010
00000000
10001000
M11MM11M
,
M1M1M1M1
00000000
00100010
00000000
01000100
00000000
10001000
MM11MM11
,
1MM11MM1
00000000
00100010
00000000
01000100
00000000
00010001
1MM11MM1
,
MM11MM11
00000000
01000100
00000000
00100010
00000000
00010001
1M1M1M1M
,
1M1M1M1M
00000000
01000100
00000000
00100010
00000000
10001000
M11MM11M
,
M1M1M1M1
00000000
00100010
00000000
01000100
00000000
10001000
MM11MM11
,
1MM11MM1
00000000
00100010
00000000
01000100
00000000
00010001
1MM11MM1
,
MM11MM11
00000000
01000100
00000000
00100010
00000000
00010001
1M1M1M1M
,
1M1M1M1M
00000000
01000100
00000000
00100010
00000000
10001000
M11MM11M
,
M1M1M1M1
00000000
00000000
00000010
00000000
00000000
00000000
00000100
MMMMMMMM
00010001
00100010
00010001
00100010
00010001
00100010
;
