#TITLE:velocity;
#SUBTITLE:;
#ARTIST:Stealing Vision;
#GENRE:happy hardcore,chill;
#CREDIT:a4bb 0101;
#MUSIC:velocity.ogg;
#BANNER:velocity-bn.png;
#CDTITLE:a4bb 0101;
#BACKGROUND:velocity-bg.png;
#LYRICSPATH:;
#CDIMAGE:;
#OFFSET:0.000;
#SAMPLESTART:93.000;
#SAMPLELENGTH:22.000;
#SELECTABLE:YES;
#OFFSET:0.000;
#BPMS:0.000=165.000,64.000=82.000,96.000=330.000,224.000=92,232.000=165.00,280.000=330.000;
#STOPS:;
#BGCHANGES:;
#ATTACKS:;
#FGCHANGES:;

//---------------dance-single - a4bb 0101----------------
#NOTES:
     dance-single:
     a4bb 0101:
     challenge:
     12:
     0,0,0,0:
0000
0000
0000
0000
,
0000
0000
0000
0000
,
0000
0000
0000
0000
,
0000
0000
0000
0000
,
0010
0001
0010
0100
0010
1000
0100
1000
0100
0010
0100
0010
0100
0010
0001
0010
,
0010
0001
0010
0100
0010
1000
0100
1000
0100
0010
0100
0010
0100
0010
0001
0010
,
0001
0010
0100
1000
0100
0010
0001
0010
0100
1000
0100
0010
0100
1000
0100
0001
,
0010
0001
0010
1000
0100
0010
0100
1000
0001
0100
0010
0001
0100
0010
1000
0001
,
1000
0100
1000
0010
0100
0001
0010
0001
0100
0010
1000
0100
1000
0010
0100
0001
,
0010
0100
0010
0001
0010
0100
0010
0001
1000
0100
0010
0100
1000
0100
0010
0100
,
0010
0100
0010
0100
0010
0100
0010
0100
0010
0100
0010
0100
0010
0100
0010
0100
,
0001
0010
0001
0100
0001
1000
0001
0100
0001
0010
0001
0100
0001
1000
0001
0100
,
0010
0001
0010
0100
0010
1000
0100
1000
0100
0010
0100
0010
0100
0010
0001
0010
,
0010
0001
0010
0100
0010
1000
0100
1000
0100
0010
0100
0010
0100
0010
0001
0010
,
0001
0010
0100
1000
0100
0010
0001
0010
0100
1000
0100
0010
0100
1000
0100
0001
,
0010
0001
0010
1000
0100
0010
0100
1000
0001
0100
0010
0001
0100
0010
1000
0001
,
1000
0100
0010
0001
0100
0010
1000
0001
0100
1000
0001
0100
1000
0010
0100
0001
,
0011
0100
0010
0001
0010
0100
0010
0001
1000
0100
0010
0100
1000
0100
0010
0100
,
1010
0100
0010
0100
0010
0100
0010
0100
0010
0100
0010
0100
0010
0100
0010
0100
,
0101
0010
0001
0100
0001
1000
0001
0100
0001
0010
0001
0100
2MM2
0000
0000
3003
,
1000
0100
0010
0001
0100
0010
1000
0001
0100
1000
0001
0100
1000
0010
0100
0001
,
0011
0100
0010
0001
0010
0100
0010
0001
1000
0100
0010
0100
1000
0100
0010
0100
,
1010
0100
0010
0100
0010
0100
0010
0100
0010
0100
0010
0100
0010
0100
0010
0100
,
0101
0010
0001
0100
0001
1000
0001
0100
0001
0010
0001
0100
2MM2
0000
0000
3003
,
0M01
1000
0010
0100
0001
1000
0010
0100
,
1000
0100
0010
0001
1000
0100
0010
0001
,
1000
0100
1000
0100
0010
0001
0010
0001
,
1000
0100
1000
0100
0010
0001
0010
0001
,
1000
0100
0010
0100
1000
0100
0010
0001
,
0010
0100
1000
0100
0010
1000
0010
0001
,
0010
0100
0010
1000
0100
0001
0100
0001
,
0010
1000
0100
0010
1000
0100
0001
001M
,
1000
0100
1000
0100
1000
0100
1000
0100
,
1000
0100
1000
0100
1000
0100
1000
0100
,
0010
0001
0010
0001
0010
0001
0010
0001
,
0010
0001
0010
0001
0010
0001
0010
0001
,
1000
0010
0100
0001
1000
0010
0100
0001
,
1000
0100
0010
0001
1000
0100
0010
0001
,
1000
0100
1000
0100
0010
0001
0010
0001
,
1000
0100
100M
0100
M010
0M01
001M
0M01
,
1MMM
0010
0100
0010
0001
0010
0100
0010
,
1000
0010
0100
0010
0001
0010
0100
0010
,
1000
0010
0100
0010
0001
0010
0100
0010
,
1000
0100
1000
0100
1M00
M100
1M00
M100
,
0001
0010
0001
0100
0001
0010
0001
0100
,
0010
0100
0001
0010
0001
0100
0010
1000
,
0010
0001
1000
0010
0001
1000
0100
1000
,
0001
M010
1000
001M
00M1
M010
100M
M010
,
M0M1
M1M0
M0M1
01M0
M0M1
M1M0
M0M1
M1M0
,
M0M1
M1M0
M0M1
M1M0
M0M1
M1M0
M0M1
M1M0
,
00M1
01M0
00M1
01M0
00M1
01M0
00M1
01M0
,
00M1
01M0
00M1
01M0
00M1
01M0
00M1
01M0
,
0001
001M
0100
0M01
0010
010M
0001
M010
,
M1M0
100M
0100
MM10
0001
010M
1000
0M10
,
00M1
1000
0100
M010
00M1
1000
0010
1M00
,
00M1
0010
010M
1M00
010M
0010
00M1
0011
,
1000
0100
0010
0100
1000
0100
0001
0100
1000
0100
0010
0100
1000
0100
0001
0100
1000
0100
0001
0100
1000
0100
0001
0010
0100
1000
0100
0010
0001
0010
1000
0010
,
0100
0010
0001
0100
0010
0001
0100
0010
0001
0100
0010
0001
0100
0010
0001
0100
1000
0100
0010
0100
1000
0100
0010
0100
1000
0100
0010
0100
0010
0100
0010
0001
,
0011
0010
0011
0010
0011
0010
0011
0010
,
0011
0010
0011
0010
0011
0010
0011
0010
,
0011
0010
0011
0010
0011
0010
0011
0010
,
0110
0100
0110
0100
1001
0001
1001
0MM1
,
1001
1000
1001
1000
1001
1000
1001
1000
,
1001
1000
1001
1000
1001
1000
1001
1000
,
0101
0100
0101
0100
0101
0100
0101
0100
,
0102
0M00
0100
0M00
0100
0M00
0100
0M03
,
1001
1000
1001
1000
1001
1000
1001
1000
,
1001
1000
1001
1000
1001
1000
1001
1000
,
0101
0100
0101
0100
0101
0100
0101
0100
,
0102
0M00
0100
0M00
0100
0M00
0100
0M03
,
0010
0000
MMMM
MMMM
0011
1000
0010
0100
,
1000
0010
0100
0001
1000
0100
0010
0001
,
0010
1000
0010
0001
1000
0010
1000
0001
,
0010
0100
1000
0100
0010
0001
1000
0010
,
0100
0001
0010
1000
0100
1000
0001
1000
,
0001
0010
0100
0010
0001
0010
0100
0010
,
0001
0010
0100
0010
0001
0010
0100
0010
,
0001
0100
1000
0001
0100
1000
0001
0100
,
1000
0100
0010
0001
0100
0010
1000
0100
,
0001
0010
0100
0010
0100
1000
0100
0010
,
0100
0001
0010
0100
1000
0100
0010
0001
,
0010
0100
1000
0100
0010
0001
0100
0001
,
0100
0001
0100
0001
0100
0001
1000
0001
,
1000
0010
1000
0010
1000
0010
0100
0010
,
0100
0010
0100
0010
0100
0010
0001
0010
,
0100
1000
0001
0010
0100
1000
0001
0010
,
0100
1000
0001
0010
0100
1000
0001
0010
,
0002
0203
0320
0030
,
2000
3200
0320
0030
,
0200
0302
0023
0030
,
2000
3200
0302
0003
,
2000
3200
0320
0030
,
0002
0023
2030
3200
,
2300
3020
0032
0203
,
0320
2030
3200
0300
,
0002
0203
0320
0030
,
2000
3200
0320
0030
,
0200
0302
0023
0030
,
2000
3200
0302
0003
,
2000
3200
0320
0030
,
0002
0023
2030
3200
,
2300
3020
0032
0203
,
0320
2030
3200
0300
