#TITLE:uranium byte;
#ARTIST:distortion way;
#BANNER:uranium byte-bn.png;
#BACKGROUND:uranium byte-bg.png;
#GENRE:hyper techo;
#CREDIT:a4bb 0101;
#SAMPLESTART:1.22;
#SAMPLELENGTH:15;
#OFFSET:-0.700;
#MUSIC:hello.mp3;
#SAMPLESTART:00.040;
#SAMPLELENGTH:17.280;
#BPMS:0.000=150.000;

//---------------dance-single - a4bb 0101----------------
#NOTES:
     dance-single:
     a4bb 0101:
     challenge:
     10:
     0,0,0,0:
0000
0000
0000
0000
,
0000
0000
0000
0000
,
0000
0000
0000
0000
,
0000
0000
0000
0000
,
MMMM
M22M
0000
0000
0000
0000
0000
0000
0000
0000
0000
0000
0000
0000
0000
0000
0000
0000
0000
0000
0000
0000
0000
0000
0000
0000
0000
0000
0000
0000
0000
0000
0000
0000
0000
0000
0000
0000
0000
0000
0000
0000
0000
0000
0000
0000
0000
0000
0000
0000
0000
0000
0000
0000
0000
0000
0000
0000
0000
0000
0000
0000
0000
0000
0000
0000
0000
0000
0000
0000
0000
0000
0000
0000
0000
0000
0000
0000
0000
0000
0000
0000
0000
0000
0000
0000
0000
0000
0000
0000
0000
0000
0000
0000
0000
0000
0000
0000
0000
0000
0000
0000
0000
0000
0000
0000
0000
0000
0000
0000
0000
0000
0000
0000
0000
0000
0000
0000
0000
0000
0000
0000
0000
0000
0000
0000
0000
0000
,
0000
0000
0000
0000
,
0000
0000
0000
0000
,
0000
0000
0000
M33M
,
0001
0100
0010
1000
0100
0010
0001
1000
,
0100
1000
0001
0010
1000
0100
0010
0001
,
0010
0001
0010
1000
0010
0100
1000
0001
,
0010
1000
0100
0010
0100
1000
0001
0100
,
0001
0100
0010
1000
0100
0010
0001
1000
,
0100
1000
0001
0010
1000
0100
0010
0001
,
0010
1000
0100
1000
,
1000
0100
0010
0001
,
1000
0100
1000
0000
0100
0010
0100
0000
0001
0100
1000
0000
1000
0010
0100
0000
,
0001
0010
1000
0000
1000
0100
1000
0000
0001
0010
1000
0000
0100
0001
1000
0000
,
0001
0010
0001
0000
1000
0100
1000
0000
0001
0010
0001
0000
1000
0100
1000
0000
,
0001
0010
0001
0000
1000
0100
1000
0000
0001
0010
0001
0000
1000
0100
1000
0000
,
1000
0100
1000
0000
0100
0010
0100
0000
0001
0100
1000
0000
1000
0010
0100
0000
,
0001
0010
1000
0000
1000
0100
1000
0000
0001
0010
1000
0000
0100
0001
1000
0000
,
0001
0010
0001
0000
1000
0100
1000
0000
0001
0010
0001
0000
1000
0100
1000
0000
,
0011
0100
1100
0010
0011
0100
1100
0010
,
1000
0100
1000
0000
0100
0010
0100
0000
0001
0100
1000
0000
1000
0010
0100
0000
,
0001
0010
1000
0000
1000
0100
1000
0000
0001
0010
1000
0000
0100
0001
1000
0000
,
0001
0010
0001
0000
1000
0100
1000
0000
0001
0010
0001
0000
1000
0100
1000
0000
,
0001
0010
0001
0000
1000
0100
1000
0000
0001
0010
0001
0000
1000
0100
1000
0000
,
1000
0100
1000
0000
0100
0010
0100
0000
0001
0100
1000
0000
1000
0010
0100
0000
,
0001
0010
1000
0000
1000
0100
1000
0000
0001
0010
1000
0000
0100
0001
1000
0000
,
0001
0010
0001
0000
1000
0100
1000
0000
0001
0010
0001
0000
1000
0100
1000
0000
,
0011
0100
1100
0010
0011
0100
1100
0010
,
1M1M
M11M
1MM1
M1M1
,
11MM
M1M1
1M1M
M11M
,
1M1M
M11M
1MM1
M1M1
,
11MM
M1M1
1M1M
M11M
,
1M1M
M11M
1MM1
M1M1
,
11MM
M1M1
1M1M
M11M
,
1M1M
M11M
1MM1
M1M1
,
11MM
M1M1
1M1M
M11M
,
1000
0010
0000
0010
1000
0000
1000
0100
0000
0100
0010
0000
0010
1000
0000
1000
,
0100
0000
0100
1000
0000
1000
0100
0000
0100
0010
0000
0010
0001
0000
0001
0100
,
0000
0100
1000
0000
1000
0100
0000
0100
1000
0000
1000
0010
0000
0010
0100
0000
,
0100
0001
0010
0001
0100
0001
0010
0001
0100
0001
0010
0001
0010
1000
0010
0100
,
1000
0010
0000
0010
1000
0000
1000
0100
0000
0100
0010
0000
0010
1000
0000
1000
,
0100
0000
0100
1000
0000
1000
0100
0000
0100
0010
0000
0010
0001
0000
0001
0100
,
0000
0100
1000
0000
1000
0100
0000
0100
1000
0000
1000
0010
0000
0010
0100
0000
,
0100
0001
0010
0001
0100
0001
0010
0001
0100
0001
0010
0001
0010
1000
0010
0100
,
1000
0010
0000
0010
1000
0000
1000
0100
0000
0100
0010
0000
0010
1000
0000
1000
,
0100
0000
0100
1000
0000
1000
0100
0000
0100
0010
0000
0010
0001
0000
0001
0100
,
0000
0100
1000
0000
1000
0100
0000
0100
1000
0000
1000
0010
0000
0010
0100
0000
,
0100
0001
0010
0001
0100
0001
0010
0001
0100
0001
0010
0001
0010
1000
0010
0100
,
1000
0010
0000
0010
1000
0000
1000
0100
0000
0100
0010
0000
0010
1000
0000
1000
,
0100
0000
0100
1000
0000
1000
0100
0000
0100
0010
0000
0010
0001
0000
0001
0100
,
0000
0100
1000
0000
1000
0100
0000
0100
1000
0000
1000
0010
0000
0010
0100
0000
,
0100
0001
0010
0001
0100
0001
0010
0001
0100
0001
0010
0001
0010
1000
0010
0100
,
0020
0000
0000
0000
,
0000
0000
0000
0000
,
0230
0000
0000
0000
,
0000
0000
0000
0000
,
0302
0000
0000
0000
,
0000
0000
0000
0000
,
2003
0000
0000
0000
,
0000
0000
0000
0000
,
3001
MMMM
MMMM
MMMM
MMMM
MMMM
MMMM
MMMM
0000
0000
0000
0000
0000
0000
0000
0000
0000
0000
0000
0000
0000
0000
0000
0000
0000
0000
0000
0000
0000
0000
0000
0000
0000
0000
0000
0000
0000
0000
0000
0000
0000
0000
0000
0000
0000
0000
0000
0000
0000
0000
0000
0000
0000
0000
0000
0000
0000
0000
0000
0000
0000
0000
0000
0000
,
