#TITLE:sigma;
#SUBTITLE:(instrumental mix);
#ARTIST:K2 feat. mabion;
#BANNER:sigma-bn.png;
#BACKGROUND:sigma-bg.png;
#GENRE:trance;
#CREDIT:a4bb 0101;
#SAMPLESTART:1.22;
#SAMPLELENGTH:15;
#OFFSET:-16.000;
#MUSIC:sigma.ogg;
#SAMPLESTART:00.040;
#SAMPLELENGTH:17.280;
#BPMS:0.000=132.000,64.000=927283738373937.000,80.000=132.000,224.000=9273738383733837383738493837494749474847449474848474847484747484849474749474947494749474.000;

//---------------dance-single - a4bb 0101----------------
#NOTES:
     dance-single:
     a4bb 0191:
     challenge:
     9:
     0,0,0,0:
0001
0000
1000
0000
0102
0000
1000
0013
,
0100
0000
0010
0000
0210
0000
0001
0310
,
0001
0000
0010
0000
0021
0000
0001
1030
,
0010
0000
1000
0000
0201
0000
1000
0310
,
0001
0000
1000
0000
0102
0000
1000
0013
,
0100
0000
0010
0000
0210
0000
0001
0310
,
0001
0000
0010
0000
0021
0000
0001
1030
,
0010
0000
1000
0000
0201
0000
1000
0310
,
0001
0000
0100
0000
1900
0000
0010
0100
,
0010
0000
0001
0000
1000
0000
0010
0100
,
1000
0000
0001
0000
1000
0000
0001
0010
,
0001
0000
1000
0000
0010
0000
1000
0100
,
0001
0000
0100
0000
1900
0000
0010
0100
,
0010
0000
0001
0000
1000
0000
0010
0100
,
1000
0000
0001
0000
1000
0000
0001
0010
,
0001
0000
1000
0000
0010
0000
1000
0100
,
MMMM
MMMM
MMMM
MMMM
MMMM
,
0000
0000
0000
0000
,
0000
0000
0000
0000
,
0000
0000
0000
0000
,
0001
0010
0100
0000
0100
0000
0100
0000
,
1000
0001
0100
0000
0100
0000
0100
0000
,
0001
1000
0010
0000
0010
0000
0010
0000
,
1000
0100
0010
0000
0010
0000
0010
0000
,
0001
0010
0100
0000
0100
0000
0100
0000
,
1000
0001
0100
0000
0100
0000
0100
0000
,
0001
1000
0010
0000
0010
0000
0010
0000
,
1000
0100
0010
0000
0010
0000
0010
0000
,
0100
0010
0000
0010
1000
0000
1000
0010
0000
0010
0100
0000
1000
0100
1000
0001
,
0100
0010
0000
0010
0001
0000
0001
0010
0000
0100
0010
0000
0010
0100
0010
1000
,
0100
0010
0000
0010
1000
0000
1000
0010
0000
0010
0100
0000
1000
0100
1000
0001
,
0100
0010
0000
0010
0001
0000
0001
0010
0000
0100
0010
0000
0010
0100
0010
1000
,
0100
0010
0000
0010
1000
0000
1000
0010
0000
0010
0100
0000
1000
0100
1000
0001
,
0100
0010
0000
0010
0001
0000
0001
0010
0000
0100
0010
0000
0010
0100
0010
1000
,
0100
0010
0000
0010
1000
0000
1000
0010
0000
0010
0100
0000
1000
0100
1000
0001
,
0100
0010
0000
0010
0001
0000
0001
0010
0000
0100
0010
0000
0010
0100
0010
1000
,
0100
0010
0000
0010
1000
0000
1000
0010
0000
0010
0100
0000
1000
0100
1000
0001
,
0100
0010
0000
0010
0001
0000
0001
0010
0000
0100
0010
0000
0010
0100
0010
1000
,
0100
0010
0000
0010
1000
0000
1000
0010
0000
0010
0100
0000
1000
0100
1000
0001
,
0100
0010
0000
0010
0001
0000
0001
0010
0000
0100
0010
0000
0010
0100
0010
1000
,
0100
0010
0000
0010
1000
0000
1000
0010
0000
0010
0100
0000
1000
0100
1000
0001
,
0100
0010
0000
0010
0001
0000
0001
0010
0000
0100
0010
0000
0010
0100
0010
1000
,
0100
0010
0000
0010
1000
0000
1000
0010
0000
0010
0100
0000
1000
0100
1000
0001
,
0100
0010
0000
0010
0001
0000
0001
0010
0000
0100
0010
0000
0010
0100
0010
1000
,
0001
0010
0100
0010
0001
0010
0100
0010
,
0001
0010
0100
0010
0001
0010
0100
0010
,
1000
0100
0010
0100
1000
0100
0010
0100
,
1000
0100
0010
0100
1000
0100
0010
0100
,
0001
0010
0100
0010
0001
0010
0100
0010
,
0001
0010
0100
0010
0001
0010
0100
0010
,
1000
0100
0010
0100
1000
0100
0010
0100
,
1000
0100
0010
0100
1000
0100
0010
0100
,
0001
0010
0100
0010
0001
0010
0100
0010
,
0001
0010
0100
0010
0001
0010
0100
0010
,
1000
0100
0010
0100
1000
0100
0010
0100
,
1000
0100
0010
0100
1000
0100
0010
0200
,
0000
0000
0000
0000
,
0000
0000
0000
0000
,
0000
0000
0000
0000
,
0300
0000
0000
0M00
,
