#TITLE:shine true;
#ARTIST:stratos;
#BANNER:shine true-bn.png;
#BACKGROUND:shine true-bg.png;
#GENRE:trance;
#CREDIT:a4bb 0101;
#MUSIC:shine true.ogg;
#OFFSET:-6.698;
#SAMPLESTART:1.22;
#SAMPLELENGTH:15;
#BPMS:0=144.000,80.000=72.000,112.000=144.000;
#STOPS:;

//---------------dance-single - ----------------
#NOTES:
     dance-single:
     :
     challenge:
     11:
     :
M1MM
MM1M
1MMM
MMM1
,
MMM1
1MMM
M1MM
MM1M
,
M1MM
MM1M
1MMM
MMM1
,
MMM1
1MMM
M1MM
MM1M
,
0011
0001
0011
0001
0011
0001
0011
0001
,
1100
1000
1100
1000
1100
1000
1100
1000
,
0110
0010
0110
0010
0110
0010
0110
0010
,
0110
0100
0110
0100
0110
0100
0110
0100
,
0011
00M1
0011
0001
0011
00M1
0011
0001
,
1100
1M00
1100
1000
1100
1M00
1100
1000
,
0110
0M10
0110
0010
0110
0M10
0110
0010
,
0110
01M0
0110
0100
0110
01M0
0110
0100
,
0011
0001
0011
0001
0011
0001
0011
0001
,
1100
1000
1100
1000
1100
1000
1100
1000
,
0110
0010
0110
0010
0110
0010
0110
0010
,
0110
0100
0110
0100
0110
0100
0110
0100
,
0011
00M1
0011
0001
0011
00M1
0011
0001
,
1100
1M00
1100
1000
1100
1M00
1100
1000
,
0110
0M10
0110
0010
0110
0M10
0110
0010
,
0110
01M0
0110
0100
0110
01M0
0110
0100
,
0012
0010
0010
0010
0013
0000
1000
0000
,
0010
0100
0001
1000
,
0010
1000
0001
0100
,
0010
0001
0010
1000
,
0012
0010
0010
0010
0013
0000
1000
0000
,
0010
0100
0001
1000
,
0010
1000
0001
0100
,
0010
0001
0010
1000
,
0M20
2000
0000
0000
0000
0000
0000
0000
,
0000
0000
0000
0000
,
3031
MM10
0001
0010
010M
0010
M100
0M10
0001
001M
1M00
0100
10M0
M001
1000
M100
,
1000
010M
0010
0001
M010
0100
1000
M100
0010
0001
0010
0100
1M00
0100
001M
00M1
,
0001
MM10
0001
0010
010M
0010
M100
0M10
0001
001M
1M00
0100
10M0
M001
1000
M100
,
00M1
0010
1000
001M
0100
1000
M001
0100
0M00
0001
001M
1000
0100
0M10
0100
00M1
,
0001
MM10
0001
0010
010M
0010
M100
0M10
0001
001M
1M00
0100
10M0
M001
1000
M100
,
1000
010M
0010
0001
M010
0100
1000
M100
0010
0001
0010
0100
1M00
0100
001M
00M1
,
0001
MM10
0001
0010
010M
0010
M100
0M10
0001
001M
1M00
0100
10M0
M001
1000
M100
,
00M1
0010
1000
001M
0100
1000
M001
0100
0M00
0001
001M
1000
0100
0M10
0100
00M1
,
0001
MM10
0001
0010
010M
0010
M100
0M10
0001
001M
1M00
0100
10M0
M001
1000
M100
,
1000
010M
0010
0001
M010
0100
1000
M100
0010
0001
0010
0100
1M00
0100
001M
00M1
,
0001
MM10
0001
0010
010M
0010
M100
0M10
0001
001M
1M00
0100
10M0
M001
1000
M100
,
00M1
0010
1000
001M
0100
1000
M001
0100
0M00
0001
001M
1000
0100
0M10
0100
00M1
,
0001
MM10
0001
0010
010M
0010
M100
0M10
0001
001M
1M00
0100
10M0
M001
1000
M100
,
1000
010M
0010
0001
M010
0100
1000
M100
0010
0001
0010
0100
1M00
0100
001M
00M1
,
0001
MM10
0001
0010
010M
0010
M100
0M10
0001
001M
1M00
0100
10M0
M001
1000
M100
,
00M1
0010
1000
001M
0100
1000
M001
0100
0M00
0001
001M
1000
0100
0M10
0100
00M1
,
M1M1
0100
0100
0100
0001
0001
1000
1000
0010
0010
0010
0010
0001
0001
0100
0100
,
M11M
0010
1000
1000
0100
0100
0100
0100
0001
0001
0001
0001
0001
0001
1000
1000
,
M1M1
0100
0100
0100
0001
0001
1000
1000
0010
0010
0010
0010
0001
0001
0100
0100
,
M11M
0010
1000
1000
0100
0100
0100
0100
0001
0001
0001
0001
0001
0001
1000
1000
,
M1M1
0100
0100
0100
0001
0001
1000
1000
0010
0010
0010
0010
0001
0001
0100
0100
,
M11M
0010
1000
1000
0100
0100
0100
0100
0001
0001
0001
0001
0001
0001
1000
1000
,
M1M1
0100
0100
0100
0001
0001
1000
1000
0010
0010
0010
0010
0001
0001
0100
0100
,
M11M
0000
0010
0000
1000
0000
1000
0000
0100
0000
0100
0000
0100
0000
0100
0000
0001
0000
0001
0000
0001
0000
0001
0000
0001
MMMM
1MMM
MMMM
1MMM
MMMM
1MMM
MMMF
,
