#TITLE:orange calm;
#SUBTITLE:;
#ARTIST:klip;
#GENRE:techno;
#CREDIT:a4bb 0101;
#MUSIC:;
#BANNER:orange calm-bn.png;
#CDTITLE:a4bb 0101;
#BACKGROUND:orange calm-bg.png;
#LYRICSPATH:;
#CDIMAGE:;
#OFFSET:-0.040;
#SAMPLESTART:26.000;
#SAMPLELENGTH:15.000;
#SELECTABLE:YES;
#BPMS:0.000=130.000;
#STOPS:;
#BGCHANGES:;
#ATTACKS:;
#FGCHANGES:;

//---------------dance-single - a4bb 0101----------------
#NOTES:
     dance-single:
     a4bb 0101:
     challenge:
     10:
     0,0,0,0:
0000
0000
0000
0000
,
0000
0000
0000
0000
,
0000
0000
0000
0000
,
0000
0000
0000
0000
,
1000
0100
2000
0000
0000
0000
0000
3000
,
0100
0010
0002
0000
0000
0000
0000
0003
,
0100
1000
0020
0000
0000
0000
0000
0030
,
0001
0010
MMMM
MMMM
MMMM
MMMM
M11M
MMMM
,
1000
0100
1000
0100
0001
0100
0001
0100
1000
0010
1000
0010
0100
0010
0100
0010
,
0001
0010
0001
0010
0100
0010
0100
0010
1000
0100
1000
0100
0010
0100
0010
0100
,
0010
0001
0010
0100
0001
0100
0001
1000
0100
0001
0100
1000
0100
1000
0100
0001
,
0010
0001
0010
0001
0010
0100
1000
0100
1000
0100
1000
0100
1000
0100
1000
0100
,
0001
0100
0001
0100
0010
1000
0010
1000
0010
0001
0100
0001
0100
0010
1000
0010
,
1000
0010
1000
0010
1000
0010
1000
0100
0010
0100
0010
0100
0010
0100
0001
0100
,
0001
0100
0001
0100
0001
0010
1000
0010
1000
0010
1000
0010
1000
0010
0100
0010
,
1000
0010
0100
0010
1000
0010
0100
0010
1000
0010
0100
0010
0001
0010
0100
0010
,
1000
0100
1000
0100
0001
0100
0001
0100
1000
0010
1000
0010
0100
0010
0100
0010
,
0001
0010
0001
0010
0100
0010
0100
0010
1000
0100
1000
0100
0010
0100
0010
0100
,
0010
0001
0010
0100
0001
0100
0001
1000
0100
0001
0100
1000
0100
1000
0100
0001
,
0010
0001
0010
0001
0010
0100
1000
0100
1000
0100
1000
0100
1000
0100
1000
0100
,
0001
0100
0001
0100
0010
1000
0010
1000
0010
0001
0100
0001
0100
0010
1000
0010
,
1000
0010
1000
0010
1000
0010
1000
0100
0010
0100
0010
0100
0010
0100
0001
0100
,
0001
0100
0001
0100
0001
0010
1000
0010
1000
0010
1000
0010
1000
0010
0100
0010
,
1000
0010
0100
0010
1000
0010
0100
0010
1000
0010
0100
0010
0001
0010
0100
0010
,
1000
0100
1000
0100
0001
0100
0001
0100
1000
0010
1000
0010
0100
0010
0100
0010
,
0001
0010
0001
0010
0100
0010
0100
0010
1000
0100
1000
0100
0010
0100
0010
0100
,
0010
0001
0010
0100
0001
0100
0001
1000
0100
0001
0100
1000
0100
1000
0100
0001
,
0010
0001
0010
0001
0010
0100
1000
0100
1000
0100
1000
0100
1000
0100
1000
0100
,
0001
0100
0001
0100
0010
1000
0010
1000
0010
0001
0100
0001
0100
0010
1000
0010
,
1000
0010
1000
0010
1000
0010
1000
0100
0010
0100
0010
0100
0010
0100
0001
0100
,
0001
0100
0001
0100
0001
0010
1000
0010
1000
0010
1000
0010
1000
0010
0100
0010
,
1000
0010
0100
0010
1000
0010
0100
0010
1000
0010
0100
0010
0001
0010
0100
0010
,
1000
0100
1000
0100
0001
0100
0001
0100
1000
0010
1000
0010
0100
0010
0100
0010
,
0001
0010
0001
0010
0100
0010
0100
0010
1000
0100
1000
0100
0010
0100
0010
0100
,
0010
0001
0010
0100
0001
0100
0001
1000
0100
0001
0100
1000
0100
1000
0100
0001
,
0010
0001
0010
0001
0010
0100
1000
0100
1000
0100
1000
0100
1000
0100
1000
0100
,
0001
0100
0001
0100
0010
1000
0010
1000
0010
0001
0100
0001
0100
0010
1000
0010
,
1000
0010
1000
0010
1000
0010
1000
0100
0010
0100
0010
0100
0010
0100
0001
0100
,
0001
0100
0001
0100
0001
0010
1000
0010
1000
0010
1000
0010
1000
0010
0100
0010
,
1000
0010
0100
0010
1000
0010
0100
0010
1000
0010
0100
0010
0001
0010
0100
0010
,
0110
0010
0010
0010
0010
0010
0010
0010
,
0010
0010
0010
0010
0010
0010
0010
0010
,
0010
0010
0010
0010
0010
0010
0010
0010
,
0010
0010
0010
0010
0010
0010
0010
0010
,
00M1
0100
0010
@000
,
0100
0010
0100
1000
,
0010
0001
0100
0010
,
1000
0100
0010
0100
,
M22M
0000
0000
0000
,
0000
0000
0000
0000
,
0000
0000
0000
0000
,
0000
0000
0000
M33M
,
