#TITLE:now be after;
#ARTIST:digital malfungtion;
#BANNER:now be after-bn.png;
#BACKGROUND:now be after-bg.png;
#GENRE:UK hardcore;
#CREDIT:a4bb 0101;
#SAMPLESTART:1.22;
#SAMPLELENGTH:15;
#OFFSET:-1.000;
#MUSIC:now be after.ogg;
#SAMPLESTART:00.040;
#SAMPLELENGTH:17.280;
#BPMS:0.000=195.000;

//---------------dance-single - a4bb 0101----------------
#NOTES:
     dance-single:
     a4bb 0101:
     challenge:
     13:
     0,0,0,0:
0000
0000
0000
0000
,
0000
0000
0000
0000
,
0000
0000
0000
0000
,
0000
0000
0000
0000
,
0001
1000
0001
1000
0001
1000
0010
0100
,
0001
0010
0001
0010
0100
1000
0100
0001
,
0100
0001
1000
0010
0100
0001
1000
0010
,
0100
1000
0100
0100
1000
0100
0001
M11M
,
0001
1000
0001
1000
0001
1000
0010
0100
,
0001
0010
0001
0010
0100
1000
0100
0001
,
0100
0001
1000
0010
0100
0001
1000
0010
,
0100
1000
0100
0100
1000
0100
0001
M11M
,
0011
0001
0011
0001
0011
0001
0011
0001
,
1100
1000
1100
1000
1100
1000
1100
1000
,
2002
0000
0000
0000
,
0000
0000
0000
3003
,
0000
0000
0000
1000
0100
1000
0010
0100
0010
0001
0010
0001
1000
0100
0010
0001
,
1000
0010
0100
0001
1000
0010
0100
0001
1000
0100
0010
0001
1000
0100
0010
0001
,
1000
0100
0010
0001
0010
0100
1000
0100
0010
0100
1000
0100
0010
0001
0010
0100
,
0001
0100
0010
1000
0001
0100
0010
1000
0001
0010
0100
1000
0001
0010
0100
1000
,
0001
0100
0010
1000
0100
0010
0100
1000
0001
0100
0010
1000
0100
0010
0100
1000
,
0001
0010
0100
1000
0010
0100
0001
0010
0001
1000
0100
1000
0001
1000
0001
0100
,
0010
1000
0100
0010
0001
0010
0100
1000
0100
0010
0001
0010
0100
1000
0100
0010
,
0100
0010
0100
1000
0100
0010
0100
1000
0100
0001
0010
1000
0010
0001
0010
1000
,
0100
0001
1000
0010
10M0
0000
0100
0000
0010
0000
0001
0000
0100
0000
1000
0000
,
1000
0010
1000
0010
0100
0001
0010
1000
0100
,
0010
1000
0100
0001
0010
1000
0100
1000
,
0010
1000
0100
0001
0010
1000
0100
,
0010
0001
1000
0010
0100
0001
0100
0001
,
0010
0100
1000
0100
0001
1000
0010
0100
,
0001
1000
0001
0100
0010
1000
0100
0001
,
M22M
0000
0000
0000
,
0330
MMMM
0000
0000
1000
0100
1000
0100
0010
0001
0010
0001
0010
0100
1000
0100
,
0001
0100
0001
0100
0001
0100
0001
0100
0010
1000
0010
1000
0010
1000
0010
1000
,
0100
0010
0100
0010
0100
0010
0100
1000
0100
1000
0100
1000
0100
0010
0001
0010
,
0001
0010
0100
1000
0010
0100
0001
0010
0100
1000
0010
0100
0001
0010
0100
1000
,
0001
0010
0001
1000
0100
1000
0001
0010
0001
1000
0100
1000
0010
0100
0010
1000
,
0001
1000
0001
0100
0001
1000
0010
1000
0100
0010
0001
0010
0100
1000
0100
1000
,
0100
1000
0100
1000
0010
0001
0010
0100
0010
0001
0010
1000
0100
0010
0001
0010
,
0100
0010
0100
0010
0001
1000
0001
1000
0001
1000
0001
1000
0001
1000
0010
0001
,
0010
1000
0010
1000
0010
1000
0010
1000
0010
1000
0010
1000
0010
1000
0010
1000
,
0100
0010
0100
0010
0100
0010
0100
0010
0100
0010
0100
0010
0100
0010
0100
0010
,
0100
0001
0100
0001
0100
0001
0100
0001
0100
0001
0100
0001
0100
0001
0100
0001
,
0100
0001
0100
0001
0100
0001
0100
0001
0100
0001
0100
0001
0100
0001
0100
0001
,
1000
0100
0010
0001
1000
0100
0010
0100
1000
0001
0010
0001
0100
0001
1000
0001
,
0100
0001
0010
0001
0010
1000
0100
0001
0010
1000
0100
0010
0100
1000
0100
0001
,
0001
0100
1000
0100
0010
0100
0001
0010
1000
0100
0010
0100
1000
0100
1000
0010
,
0100
0001
0010
0100
1000
0100
0010
0100
1000
0100
0010
0001
1000
0100
0001
0010
,
1000
2000
3100
0200
0310
0020
0031
0002
,
0013
0020
0130
0200
1300
2000
3100
0200
,
0310
0021
0032
0013
0020
0130
0200
1300
,
2002
0000
0000
3003
,
0000
0000
0100
0010
1000
0001
0100
0010
,
1000
0100
0001
1000
0010
0100
0001
1000
,
0100
0010
0001
1000
0100
0010
0001
0100
,
0010
1000
0001
0010
0001
0100
1000
0010
,
0100
0001
0010
1000
0100
0010
1000
0001
,
0010
1000
0100
0010
0100
1000
0100
0001
,
0010
1000
0100
0010
1000
0010
0100
0001
,
0010
0100
1000
0100
0010
0001
1000
0001
,
1000
0001
0100
0010
1000
0001
0100
0010
,
1000
0100
0001
1000
0010
0100
0001
1000
,
0100
0010
0001
1000
0100
0010
0001
0100
,
0010
1000
0001
0010
0001
0100
1000
0010
,
0100
0001
0010
1000
0100
0010
1000
0001
,
0010
1000
0100
0010
0100
1000
0100
0001
,
0010
1000
0100
0010
1000
0010
0100
0001
,
0010
0100
1000
0100
0010
0001
1000
0001
,
1000
0000
0010
0000
2000
3200
2300
3200
0320
0032
0023
0032
2003
3200
2300
3200
,
0320
0032
0023
0032
0003
1000
0100
0001
0010
0100
1000
0001
0100
0001
0100
1000
,
0100
0001
0010
1000
0100
0010
0100
1000
0001
1000
0010
1000
0001
0100
0010
1000
,
0100
0010
0100
1000
0100
0001
0010
1000
0010
0100
0001
0010
1000
0010
0001
1000
,
0001
0010
0100
1000
0001
0010
0100
1000
0001
0010
0100
1000
0001
0010
0100
1000
,
0100
0010
0100
0001
0100
0010
1000
0100
0010
0001
0010
0100
1000
0100
1000
0001
,
0001
1000
0010
0100
1000
0100
0010
0001
0100
0010
0001
1000
0100
0010
0001
1000
,
0010
0001
1000
0100
0010
0001
1000
0100
0001
1000
0100
0010
0100
1000
0100
0001
,
0000
0000
0000
0000
1000
0100
0010
0001
0100
0010
0001
1000
0100
0010
0001
1000
,
0010
0001
1000
0100
0010
0001
1000
0100
0001
1000
0100
0010
0100
1000
0100
0001
,
1000
0100
0010
0001
1000
0100
0010
0001
1000
0100
0010
0001
1000
0100
0010
0001
,
0100
0010
0001
1000
0100
0010
0001
1000
0100
0010
0001
1000
0100
0010
0001
1000
,
0100
0001
0100
0001
1000
0010
1000
0010
0001
0010
0100
1000
0100
0010
1000
0001
,
0010
1000
0100
0010
0001
0010
0100
1000
0100
0010
0100
1000
0001
0100
1000
0010
,
1000
0100
0010
0001
1000
0100
0010
0001
1000
0100
0010
0001
1000
0100
0010
0001
,
0100
0010
0001
1000
0100
0010
0001
1000
0100
0010
0001
1000
0100
0010
0001
1000
,
0100
0010
1000
1000
0100
0000
0100
0000
0010
0000
0100
0000
0100
0000
0010
0000
,
0100
0100
0010
0100
0100
0010
0001
1000
,
0000
0000
2001
0001
0001
0001
0001
0001
,
0000
0000
3210
0010
0010
0010
0010
0310
,
