#TITLE: Healing vision;
#SUBTITLE:~E music remix~;
#ARTIST:E music;
#GENRE:classic;
#CREDIT:a4bb 0101;
#MUSIC: Healing vision E music remix;
#BANNER: healing vision-bn.png;
#CDTITLE:a4bb 0101;
#BACKGROUND:Healing vision-bg.png;
#LYRICSPATH:;
#CDIMAGE:;
#OFFSET:-0.000;
#SAMPLESTART:26.000;
#SAMPLELENGTH:15.000;
#SELECTABLE:YES;
#BPMS:0.000=97.990,32.000=196.010;
#STOPS:160.000=2.447;
#BGCHANGES:;
#ATTACKS:;
#FGCHANGES:;

//---------------dance-single - a4bb 0101----------------
#NOTES:
     dance-single:
     a4bb 0101:
     challenge:
     12:
     0,0,0,0:
0000
0000
0000
0000
,
0000
0000
0000
0000
,
0011
0011
0011
0011
,
0110
0110
2002
3MM3
,
0110
0000
0011
0000
1100
0000
0110
0000
1001
0000
0110
0110
0011
2200
3300
0001
,
0110
0000
0011
0000
1100
0000
0110
0000
1001
0000
0110
0110
0011
2200
0000
3300
,
0110
0000
0011
0000
1100
0000
0110
0000
1001
0000
0110
0110
0011
2200
0000
3300
,
0101
0000
0101
0000
0101
0000
0101
0000
0110
0000
0110
0000
0110
0000
0110
0000
1100
0000
1100
0000
1100
0000
1100
00M0
0001
0100
0010
1000
0100
0010
0001
0100
,
0001
0010
0001
0010
1M00
0010
0001
0010
,
0010
1000
0010
0100
00M1
1000
0010
0100
,
0001
0M10
0100
1000
0100
0M10
0100
1000
,
0001
010M
0M10
100M
M100
0010
00M1
010M
,
0010
0001
0010
1M00
0010
0001
0010
1M00
,
0010
1000
0010
0100
00M1
1000
0010
0100
,
0001
0M10
0100
1000
0100
0M10
0100
1000
,
0001
010M
0M10
100M
M100
0010
00M1
010M
,
0001
0010
0001
0010
1M00
0010
0001
0010
,
0010
1000
0010
0100
00M1
1000
0010
0100
,
0001
0M10
0100
1000
0100
0M10
0100
1000
,
0001
010M
0M10
100M
M100
0010
00M1
010M
,
0010
0001
0010
1M00
0010
0001
0010
1M00
,
0010
1000
0010
0100
00M1
1000
0010
0100
,
0001
0M10
0100
1000
0100
0M10
0100
1000
,
0001
010M
0M10
100M
M100
0010
00M1
010M
,
0011
001M
0110
0100
1100
1000
1100
0100
,
M100
0110
0010
0011
0001
0011
0010
0001
,
0110
0100
0011
001M
0110
0100
1100
1000
,
M100
0110
0010
0011
0001
0011
0010
0110
,
0011
001M
0110
0100
1100
1000
1100
0010
,
M100
0110
0010
0011
0001
0011
0010
0110
,
0010
0001
0010
1M00
0010
0001
0010
1M00
,
0010
1000
0010
0100
00M1
1000
0010
0100
,
0001
0M11
0100
1100
0100
1M10
0100
1001
,
0001
011M
0M10
101M
M100
1010
00M1
011M
,
0011
001M
0110
0100
1100
1000
1100
0100
,
M100
0110
0010
0011
0001
0011
0010
0001
,
0110
0100
0011
001M
0110
0100
1100
1000
,
M100
0110
0010
0011
0001
0011
0010
0110
,
0110
0100
0011
001M
0110
0100
1100
1000
,
M100
0110
0010
0011
0001
0011
0010
0110
,
0001
0010
0001
0010
1000
0100
1000
0100
0010
0100
0010
0000
0001
1000
0010
0000
,
0001
0010
0100
1000
0010
0100
0001
1000
0100
1000
0100
0000
0001
0010
1000
0000
,
0100
0001
0100
0010
0100
1000
0100
0010
1000
0010
0000
0100
0001
0100
0000
0000
,
1MM1
M11M
1MM1
M11M
,
0001
0010
0001
0010
1000
0100
1000
0100
0010
0100
0010
0000
0001
1000
0010
0000
,
0001
0010
0100
1000
0010
0100
0001
1000
0100
1000
0100
0000
0001
0010
1000
0000
,
0100
0001
0100
0010
0100
1000
0100
0010
1000
0010
0000
0100
0001
0100
0000
0000
,
1MM1
M11M
1MM1
M11M
,
2000
0001
0000
0001
0000
0001
0000
0001
,
0000
0010
0000
0010
0000
0010
0010
3010
,
0100
1000
0100
1000
0100
1000
0100
1000
0100
1000
0100
1000
0100
1000
0100
1000
,
0100
1000
0100
1000
0100
1000
0100
1000
0100
1000
0100
1000
0100
1000
0100
1000
0100
1000
0100
0010
0001
1000
0100
0010
,
1000
0100
1000
0100
0010
0100
1000
0100
0010
0100
0001
0010
0001
0010
0100
1000
,
0100
0001
0010
1000
0100
0010
0100
1000
0001
0100
0001
1000
0010
1000
0001
0100
,
0001
0010
0100
0001
0010
0100
1000
0100
0010
1000
0100
0010
0001
0010
1000
0010
,
0001
0010
0100
1000
0100
0010
0100
1000
0001
1000
0010
1000
0010
0100
0001
0010
,
1000
0100
1000
0100
0010
0100
1000
0100
0010
0100
0001
0010
0001
0010
0100
1000
,
0100
0001
0010
1000
0100
0010
0100
1000
0001
0100
0001
1000
0010
1000
0001
0100
,
0001
0010
0100
0001
0010
0100
1000
0100
0010
1000
0100
0010
0001
0010
1000
0010
,
0001
0010
0100
1000
0100
0010
0100
1000
0001
1000
0010
1000
0010
0100
0001
0010
,
0001
0010
0100
0010
0001
0010
0100
0010
0001
0010
0100
1000
0100
0010
0100
1000
,
0100
1000
0100
0001
0100
1000
0100
0001
0010
0100
1000
0001
0100
0010
1000
0100
,
0010
0001
0010
0100
1000
0100
0010
0001
1000
0100
0010
0001
0010
1000
0010
0001
,
1000
0100
0010
0001
1000
0100
0010
0001
1000
0100
0010
0001
1000
0100
0010
0001
,
0100
1000
0100
0010
0001
0010
1000
0010
0100
0001
0010
1000
0100
0010
0100
1000
,
0100
0010
0001
0010
0100
1000
0100
1000
0100
0010
0100
0001
0010
0100
1000
0001
,
1000
0100
0010
0001
1000
0100
0010
0001
0010
0100
1000
0001
0010
1000
0100
0010
,
0002
0003
0200
0300
0020
0030
2000
3000
0200
0300
0020
0030
0002
0003
0020
0030
0200
0300
2000
3000
0200
0300
0020
0030
0002
0003
0020
0030
0200
0300
2000
3001
;

//---------------dance-double - a4bb 0101----------------
#NOTES:
     dance-double:
     a4bb 0101:
     challenge:
     11:
     0,0,0,0:
00000000
00000000
00000000
00000000
,
00000000
00000000
00000000
00000000
,
00110000
00000011
00110000
00000011
,
01000100
00100010
20000002
3MM00MM3
,
01000000
00000100
00100000
00000010
00001000
00010000
01000000
00000100
10000000
00000001
01000000
00000100
00110000
22000000
33000000
00010000
,
00000110
00000000
00000011
00000000
00001100
00000000
00000110
00000000
00001001
00000000
00000110
00000110
00000011
00002200
00000000
00003300
,
01100000
00000000
00110000
00000000
11000000
00000000
01100000
00000000
10010000
00000000
01100000
01100000
00110000
22000000
00000000
33000000
,
01000001
00000000
00100100
00000000
00010010
00000000
10001000
00000000
01000100
00000000
00100010
00000000
00011000
00000000
10000100
000000M0
00010000
01000000
00100000
10000000
00000100
00000010
00000001
00001000
,
00010000
00100000
00000001
00000010
1M000000
00100000
00000001
00000100
,
00001000
10000000
01000000
00100000
00M10000
00001000
00000100
00000010
,
00010000
0M100000
01000000
10000000
00000100
00000M10
00000100
00001000
,
00010000
010M0000
00000M10
0000100M
M1000000
00100000
000000M1
0000010M
,
00100000
00010000
00000010
00001M00
00100000
00010000
00000010
00001M00
,
00100000
10000000
00000010
00000100
00M10000
10000000
00100000
01000000
,
00010000
0M100000
01000000
10000000
00010000
0M100000
01000000
10000000
,
00010000
010M0000
0M100000
100M0000
M1000000
00100000
00M10000
010M0000
,
00010000
00100000
00000001
00000010
00001M00
00000010
00000001
00000010
,
00100000
10000000
00000010
00000100
00M10000
10000000
00100000
01000000
,
00010000
0M100000
01000000
10000000
00010000
0M100000
01000000
10000000
,
00010000
010M0000
0M100000
100M0000
M1000000
00100000
00M10000
010M0000
,
00100000
00010000
00000010
00001M00
00100000
00010000
00000010
00001M00
,
00100000
10000000
00000010
00000100
00M10000
10000000
00100000
01000000
,
00010000
0M100000
01000000
10000000
00010000
0M100000
01000000
10000000
,
00010000
010M0000
0M100000
100M0000
M1000000
00100000
00M10000
010M0000
,
00110000
001M0000
00000110
00000100
00001100
00001000
11000000
01000000
,
M1000000
01100000
00000010
00000011
00010000
00110000
00000010
00000001
,
01100000
01000000
00000011
0000001M
00000110
00000100
00001100
00001000
,
M1000000
01100000
00000010
00000011
00010000
00110000
00000110
00000000
,
00110000
001M0000
00000110
00000100
00001100
00001000
11000000
00100000
,
M1000000
01100000
00000010
00000011
00010000
00110000
00000110
00000000
,
00100000
00010000
00000010
00001M00
00100000
00010000
00000010
00001M00
,
00100000
10000000
00000010
01000000
00M10000
10000000
00100000
01000000
,
00010000
0M110000
01000000
11000000
00000100
00001M10
00000100
00001001
,
00010000
011M0000
0M100000
101M0000
0000M100
00001010
000000M1
0000011M
,
00110000
001M0000
00000110
00000100
00001100
00001000
11000000
01000000
,
M1000000
01100000
00000010
00000011
00010000
00110000
00000010
00000001
,
01100000
01000000
00000011
0000001M
00000110
00000100
00001100
00001000
,
M1000000
01100000
00000010
00000011
00010000
00110000
00000110
00000000
,
01100000
01000000
00000011
0000001M
00000110
00000100
00001100
00001000
,
M1000000
01100000
00000010
00000011
00010000
00110000
00000110
00000000
,
00010000
00100000
00000001
00000010
10000000
01000000
00001000
00000100
00100000
01000000
00000010
00000000
00010000
10000000
00000010
00000000
,
00010000
00100000
01000000
10000000
00000010
00000100
00000001
00001000
01000000
10000000
00000100
00000000
00010000
00100000
00001000
00000000
,
01000000
00010000
00000100
00000010
01000000
10000000
00000100
00000010
10000000
00100000
00000000
00000100
00010000
01000000
00000000
00000000
,
10010000
01100000
00001001
00000110
,
00010000
00100000
00000001
00000010
10000000
01000000
00001000
00000100
00100000
01000000
00000010
00000000
00010000
10000000
00000010
00000000
,
00010000
00100000
01000000
10000000
00000010
00000100
00000001
00001000
01000000
10000000
00000100
00000000
00010000
00100000
00001000
00000000
,
01000000
00010000
00000100
00000010
01000000
10000000
00000100
00000010
10000000
00100000
00000000
00000100
00010000
01000000
00000000
00000000
,
10010000
01100000
00001001
00000110
,
20000000
00010000
00000000
00000001
00000000
00000100
00000000
00001000
,
00000000
00100000
00000000
00000010
00000000
00000010
00000010
30100000
,
01000000
10000000
00000100
00001000
01000000
10000000
00000100
00001000
01000000
10000000
00000100
00001000
01000000
10000000
00000100
00001000
,
01000000
10000000
00000100
00001000
01000000
10000000
00000100
00001000
01000000
10000000
00000100
00001000
01000000
10000000
00000100
00001000
01000000
10000000
01000000
00100000
00010000
10000000
01000000
00100000
,
10000000
01000000
00001000
00000100
00100000
01000000
00001000
00000100
00100000
01000000
00010000
00100000
00000001
00000010
00000100
00001000
,
01000000
00010000
00100000
10000000
00000100
00000001
00000010
00001000
00010000
01000000
00000001
00001000
00100000
10000000
00000001
01000000
,
00010000
00100000
01000000
00010000
00100000
01000000
10000000
01000000
00100000
10000000
01000000
00100000
00010000
00100000
00001000
00000010
,
00010000
00100000
01000000
10000000
01000000
00100000
01000000
10000000
00010000
10000000
00100000
10000000
00100000
01000000
00000001
00000010
,
10000000
01000000
10000000
01000000
00100000
01000000
10000000
01000000
00100000
01000000
00010000
00100000
00010000
00100000
01000000
10000000
,
01000000
00010000
00100000
10000000
01000000
00100000
01000000
10000000
00010000
01000000
00010000
10000000
00100000
10000000
00010000
01000000
,
00010000
00100000
01000000
00010000
00100000
01000000
10000000
01000000
00100000
10000000
01000000
00100000
00010000
00100000
10000000
00100000
,
00010000
00100000
01000000
10000000
01000000
00100000
01000000
10000000
00010000
10000000
00100000
10000000
00100000
01000000
00010000
00100000
,
00010000
00100000
01000000
00100000
00010000
00100000
01000000
00100000
00010000
00100000
01000000
10000000
01000000
00100000
01000000
10000000
,
01000000
10000000
01000000
00010000
01000000
10000000
01000000
00010000
00100000
01000000
10000000
00010000
01000000
00100000
10000000
01000000
,
00100000
00010000
00100000
01000000
10000000
01000000
00100000
00010000
10000000
01000000
00100000
00010000
00100000
10000000
00100000
00010000
,
10000000
01000000
00100000
00010000
10000000
01000000
00100000
00010000
10000000
01000000
00100000
00010000
10000000
01000000
00100000
00010000
,
01000000
10000000
01000000
00100000
00010000
00100000
10000000
00100000
01000000
00010000
00100000
10000000
01000000
00100000
01000000
10000000
,
01000000
00100000
00010000
00100000
01000000
10000000
01000000
10000000
01000000
00100000
01000000
00010000
00100000
01000000
10000000
00010000
,
10000000
01000000
00100000
00010000
10000000
01000000
00100000
00010000
00100000
01000000
10000000
00010000
00100000
10000000
01000000
00100000
,
00020000
00030000
00000200
00000300
00000020
00000030
00002000
00003000
00000200
00000300
00000020
00000030
00020000
00030000
00000020
00000030
00000200
00000300
00002000
00003000
00000200
00000300
00000020
00000030
00020000
00030000
00000020
00000030
00000200
00000300
00002000
00003001
,
