#TITLE:dream quart;
#ARTIST:maxzizer;
#BANNER:dream quart-bn.png;
#BACKGROUND:dream quart-bg.png;
#GENRE:dream trance;
#CREDIT:a4bb 0101;
#SAMPLESTART:1.22;
#SAMPLELENGTH:15;
#OFFSET:-0.040;
#MUSIC:drean quart.ogg;
#SAMPLESTART:00.040;
#SAMPLELENGTH:17.280;
#BPMS:0.000=135.000;

//---------------dance-single - a4bb 0101----------------
#NOTES:
     dance-single:
     a4bb 0101:
     challenge:
     10:
     0,0,0,0:
0000
0000
0000
0000
,
0000
0000
0000
0000
,
0000
0000
0000
0000
,
0000
0000
0000
0000
,
MM11
1001
1100
0110
0011
0110
1001
1M1M
,
M11M
1001
1010
0101
0110
1001
0110
1M1M
,
MM11
1001
1100
0110
0011
0110
1001
1M1M
,
M11M
1001
1010
0101
0110
1001
0110
1M1M
,
MM11
1001
1100
0110
0011
0110
1001
1M1M
,
M11M
1001
1010
0101
0110
1001
0110
1M1M
,
MM11
1001
1100
0110
0011
0110
1001
1M1M
,
M11M
1001
1010
0101
0110
1001
0110
1M1M
,
2000
0002
0010
0000
0010
0000
0010
0000
,
0010
0010
0010
0010
,
0010
0010
0010
0010
,
0010
0010
0013
3010
,
0000
0000
0000
0000
,
0000
0000
0000
0000
,
0000
0000
0000
0000
,
0000
0000
0000
0000
,
0200
0020
0001
0000
0001
0000
0001
0000
,
0001
0001
0001
0001
,
0001
0001
0001
0001
,
0001
0001
0031
0301
,
0000
0000
0000
0000
,
0000
0000
0000
0000
,
0000
0000
0000
,
0000
0000
0000
0000
0000
,
0101
0110
1010
1100
,
0110
0011
0110
1001
,
0101
0110
1010
1100
,
0110
0011
0110
1001
,
0101
0110
1010
1100
,
0110
0011
0110
1001
,
0101
0110
1010
1100
,
0110
0011
0110
1001
,
0010
1000
0010
0100
0010
1000
0010
0100
0010
0001
0010
0100
1000
0100
0010
0001
,
0010
0100
1000
0010
1000
0010
0001
0010
0100
0010
0001
0010
0100
1000
0100
0010
,
0001
0010
1000
0010
0001
0010
1000
0010
0001
0010
0100
1000
0100
0010
0100
1000
,
0100
0010
0001
0010
0100
1000
0100
0010
0001
0010
0100
1000
0100
0010
0001
0010
,
0010
1000
0010
0100
0010
1000
0010
0100
0010
0001
0010
0100
1000
0100
0010
0001
,
0010
0100
1000
0010
1000
0010
0001
0010
0100
0010
0001
0010
0100
1000
0100
0010
,
0001
0010
1000
0010
0001
0010
1000
0010
0001
0010
0100
1000
0100
0010
0100
1000
,
0100
0010
0001
0010
0100
1000
0100
0010
0001
0010
0100
1000
0100
0010
0001
0010
,
0010
1000
0010
0100
0010
1000
0010
0100
0010
0001
0010
0100
1000
0100
0010
0001
,
0010
0100
1000
0010
1000
0010
0001
0010
0100
0010
0001
0010
0100
1000
0100
0010
,
0001
0010
1000
0010
0001
0010
1000
0010
0001
0010
0100
1000
0100
0010
0100
1000
,
0100
0010
0001
0010
0100
1000
0100
0010
0001
0010
0100
1000
0100
0010
0001
0010
,
0010
1000
0010
0100
0010
1000
0010
0100
0010
0001
0010
0100
1000
0100
0010
0001
,
0010
0100
1000
0010
1000
0010
0001
0010
0100
0010
0001
0010
0100
1000
0100
0010
,
0001
0010
1000
0010
0001
0010
1000
0010
0001
0010
0100
1000
0100
0010
0100
1000
,
0100
0010
0001
0010
0100
1000
0100
0010
0001
0010
0100
1000
0100
0010
0001
0010
,
0100
1000
0001
1000
0100
0010
0100
0010
,
0001
0010
0100
1000
0100
0001
0100
0010
,
1000
0001
0010
0100
1000
0100
0010
0100
,
0010
0001
0010
1000
0010
0001
0010
1000
,
0100
1000
0001
1000
0100
0010
0100
0010
,
0001
0010
0100
1000
0100
0001
0100
0010
,
1000
0001
0010
0100
1000
0100
0010
0100
,
0010
0001
0010
1000
0010
0001
0010
1000
,
0000
1111
0000
0000
0000
0000
0000
0MM0
0MM0
0MM0
0MM0
0MM0
0MM0
0MM0
0MM0
0MM0
0MM0
MMMM
MMMM
0000
0000
0000
0000
0000
0000
0000
0000
0000
0000
0000
0000
0000
0000
0000
0000
0000
0000
0000
0000
0000
0000
0000
0000
0000
0000
0000
0000
0000
0000
0000
0000
0000
0000
0000
0000
0000
0000
0000
0000
0000
0000
0000
0000
0000
,
