#TITLE:dead meat;
#ARTIST:family farce;
#BANNER:dead meat-bn.png;
#BACKGROUND:dead meat-bg.png;
#GENRE:trap gabber;
#CDTITLE:;
#MUSIC:dead meat.ogg;
#OFFSET:00.010;
#SAMPLESTART:62.675;
#SAMPLELENGTH:15;
#DISPLAYBPM:90.000;
#BPMS:0=90.000,68.000=45.000,76.000=90.000,104.000=720.000,136.000=90.000,152.000=90.000;

//---------------dance-single - ----------------
#NOTES:
     dance-single:
     a4bb 0101:
     challenge:
     10:
     :
0000
0000
0000
0000
,
0000
0000
0000
0000
,
1000
1000
1000
1000
M010
0010
0010
0010
,
01M0
0000
0100
0000
0100
0000
0100
0000
MM01
MM10
MM01
MM10
MM01
MM10
MM01
MM11
,
00M1
0010
0001
1000
0001
0010
0001
0010
0100
1000
0100
0010
1000
0010
0100
0001
,
1000
0000
0010
0000
1000
0000
0100
0000
0010
0000
0100
0000
0001
0000
0010
0000
0100
0000
1000
0000
0100
0000
1000
0000
0100
1000
0100
1000
0100
1000
0100
1000
,
0001
0100
0010
1000
0100
0010
0100
0010
0001
0100
1000
0100
0010
0100
0010
0001
,
0010
0000
1000
0000
0100
0000
1000
0000
0100
0000
0010
0000
0001
0000
0010
0000
0100
0000
0001
0000
1000
0100
0001
0000
0010
0100
0010
0100
0010
0100
0010
0100
,
0002
02M0
0023
0302
2030
0203
302M
230M
0230
302M
M302
M230
M023
2300
0030
3000
,
0002
02M0
0023
0302
2030
0203
302M
230M
0230
302M
M302
M230
M023
2300
0030
3000
,
0002
02M0
0023
0302
2030
0203
302M
230M
0230
302M
M302
M230
M023
2300
0030
3000
,
0002
02M0
0023
0302
2030
0203
302M
230M
0230
302M
M302
M230
M023
2300
0030
3000
,
2002
0000
0000
0000
,
0000
0000
0000
0000
,
0000
0000
0000
0000
,
0000
0000
0000
0000
,
0000
0000
0000
3003
,
1001
0000
0110
0000
1100
0000
0101
0000
0110
0000
1001
0000
1100
0000
0110
0000
0011
0000
0110
0000
1100
0000
0110
0000
1100
0000
0101
0000
M11M
11MM
M11M
1MM1
,
1001
0000
0110
0000
1100
0000
0101
0000
0110
0000
1001
0000
1100
0000
0110
0000
0011
0000
0110
0000
1100
0000
0110
0000
1100
0000
0101
0000
M11M
11MM
M11M
1MM1
,
1000
0100
1000
0000
0001
0010
0001
0000
0100
0010
0100
0000
0001
0010
0001
0000
,
1000
0100
1000
0000
0100
0010
0100
0000
0001
0010
0001
0000
1000
0001
0100
0110
,
0001
0010
0001
0000
0100
0010
0100
0000
1000
0100
1000
0000
0100
0010
0100
0000
,
1000
0001
0100
0000
0001
1000
0010
0000
0100
0010
0100
0000
0010
0100
0010
0110
,
0001
0100
0010
0000
1000
0001
1000
0000
0100
0010
0100
0000
1000
0010
1000
0000
,
0001
1000
0001
0000
0001
1000
0001
0000
1000
0001
1000
0000
0001
0100
0001
0011
,
1000
0100
1000
0000
0100
0010
0100
0000
0100
0010
0100
0000
0010
0100
0010
0000
,
1000
0100
1000
0010
,
01M0
0001
0010
0001
,
100M
0100
0010
0001
,
100M
0100
1000
M001
,
0010
0100
1000
0001
,
0010
0100
0010
0001
,
0010
0001
1000
0010
,
100M
0000
M001
0000
100M
0000
M001
0000
100M
0000
0001
0000
,
M22M
0000
0000
0000
,
0000
0000
0000
0330
,
0000
0000
0000
0000
,
0000
0000
0000
0000
,
1MM2
MMM0
MMM0
MMM3
1000
0100
0000
1000
0100
0000
1000
0010
0000
0010
1000
0000
,
0001
0100
0000
0100
1000
0000
1000
0100
0000
0110
0000
0010
1000
0000
0001
0100
,
1000
0100
0000
0010
0100
0000
1000
0001
0000
0001
1000
0000
1000
0100
0000
0001
,
0010
0000
0010
0100
0000
0100
1000
0000
1000
0100
0000
0100
1000
0000
1000
0001
,
1MM1
0110
0202
0000
0000
0000
0000
0000
0000
0000
0000
0000
0000
0000
0000
1313
,
0012
1000
0010
0100
1000
0100
0010
1003
,
11MM
0011
2200
0000
0000
0000
0000
0000
0000
0000
0000
0000
0000
0000
0000
3311
,
0000
0000
0000
0000
0010
0100
0010
0100
0010
1000
0010
1000
0010
0001
0010
1000
,
0100
0010
0001
1000
0100
0010
1000
0100
0010
0100
1000
0010
0001
1000
0010
1000
,
0100
0010
0100
0010
0100
0010
1000
0010
1000
0010
1000
0100
0001
0100
0001
0010
,
1000
0000
0010
0000
1000
0000
0100
0000
1000
0000
0010
0000
0100
0000
0001
0000
0010
0000
0100
0000
1000
0000
0010
0000
0100
0000
0001
0000
0010
1000
0010
1000
,
0002
0200
0000
0000
0000
0000
0000
0000
0000
0000
0000
0000
0000
0000
0000
0000
0000
0303
0M0M
0000
0000
0000
0000
0000
0000
0000
0000
0000
0000
0000
0000
0000
0000
0000
0000
0000
0000
0000
0000
0000
0000
0000
0000
0000
0000
0000
0000
0000
,
