#TITLE:close;
#ARTIST:klip;
#BANNER:close-bn.png;
#BACKGROUND:close-bg.png;
#GENRE:psytrance;
#CREDIT:a4bb 0101;
#SAMPLESTART:1.22;
#SAMPLELENGTH:15;
#OFFSET:-0.040;
#MUSIC:drean quart.ogg;
#SAMPLESTART:00.040;
#SAMPLELENGTH:17.280;
#BPMS:0.000=142.000;

//---------------dance-single - a4bb 0101----------------
#NOTES:
     dance-single:
     a4bb 0101:
     challenge:
     10:
     0,0,0,0:
0000
0000
0000
0000
,
0000
0000
0000
0000
,
0000
0000
0000
0000
,
0000
0000
0000
0000
,
0101
0001
0100
0010
1000
0100
0010
0100
,
0101
0010
1000
0100
0010
1000
0001
0010
,
1100
0100
1000
0100
0010
0100
0001
1000
,
0011
0010
0001
0010
1000
0100
0001
0010
,
0001
0010
0001
0010
0001
0010
0001
010M
0010
0100
0010
0100
0010
0100
0010
0100
,
1000
0100
1000
0100
1000
0100
1000
0001
0010
0100
0010
0001
0010
0100
0001
1000
,
0100
1000
0100
1000
0100
1000
0100
1000
0100
1000
0100
1000
0100
0010
0001
0010
,
0100
1000
0100
0010
0001
0010
1000
0010
1000
0010
1000
0100
0001
0100
1000
M001
,
0001
0010
0001
0010
0001
0010
0001
010M
0010
0100
0010
0100
0010
0100
0010
0100
,
1000
0100
1000
0100
1000
0100
1000
0100
0010
0100
0010
0001
0010
0100
0001
1000
,
0100
1000
0100
1000
0100
1000
0100
1000
0100
1000
0100
1000
0100
0010
0001
0010
,
0100
1000
0100
0010
0001
0010
1000
0010
1000
0010
1000
0100
0001
0100
1000
M001
,
0110
1000
0100
0010
0100
0001
0010
1000
0100
1000
0001
1000
0100
1000
0001
0100
,
0001
0010
0100
0010
0001
0010
0100
1000
0100
0010
0100
1000
0100
0010
0100
0001
,
1010
0100
0010
0100
0010
0100
1000
0100
1000
0100
1000
0100
1000
0100
1000
0010
,
0001
0010
0001
0010
0001
0010
0001
0100
0001
0010
1000
0010
1000
0001
0100
0001
,
0110
1000
0100
0010
0100
0001
0010
1000
0100
1000
0001
1000
0100
1000
0001
0100
,
0001
0010
0100
0010
0001
0010
0100
1000
0100
0010
0100
1000
0100
0010
0100
0001
,
1010
0100
0010
0100
0010
0100
1000
0100
1000
0100
1000
0100
1000
0100
1000
0010
,
0001
0010
0001
0010
0001
0010
0001
0100
0001
0010
1000
0010
1000
0001
0100
0001
,
1100
0010
0001
0010
1000
0010
0001
0010
,
0001
0100
1000
0100
0001
0100
1000
0100
,
0001
0010
0100
1000
0100
0010
0001
1000
,
0100
0010
1000
0100
0010
0001
1000
0001
,
0110
0001
1000
0001
1000
0001
1000
0001
,
0010
0001
0010
0001
0010
0001
0010
0001
,
0100
0001
0100
0001
0100
0001
0100
0001
,
1000
0100
1000
0100
1000
0100
0010
0001
,
1100
0010
0001
0010
1000
0010
0001
0010
,
0001
0100
1000
0100
0001
0100
1000
0100
,
0001
0010
0100
1000
0100
0010
0001
1000
,
0100
0010
1000
0100
0010
0001
1000
0001
,
0110
0001
1000
0001
1000
0001
1000
0001
,
0010
0001
0010
0001
0010
0001
0010
0001
,
0100
0001
0100
0001
0100
0001
0100
0001
,
1000
0100
1000
0100
1000
0100
0010
0001
,
11MM
0010
MM01
0010
1000
0010
0001
0010
,
0001
01NN
1000
N100
0001
0100
1MMM
0100
,
0001
0M10
0100
1M00
0100
0010
0001
100M
,
M100
0010
1000
M100
0010
0001
1MMM
0001
,
0110
0001
1000
0001
1000
0001
1000
0001
,
0010
0001
0010
0001
0010
0001
0010
0001
,
0100
0001
0100
0001
0100
0001
0100
0001
,
1000
0100
1000
0100
1000
0100
0010
0001
,
11MM
0010
0001
0010
1000
0010
0001
0010
,
0001
0100
1000
0100
0001
0100
1000
0100
,
0001
0010
0100
1000
0100
0010
0001
1000
,
0100
0010
1000
0100
0010
0001
1000
0001
,
1000
0100
1000
0000
1000
0100
1000
0000
1000
0100
1000
0000
1000
0100
1000
0000
,
100M
010M
100M
000M
100M
010M
100M
0000
100M
01M0
100M
0000
100M
01M0
100M
0000
,
1000
0100
1000
0000
1000
0100
1000
0000
1000
0100
1000
0000
1000
0100
1000
0000
,
1000
0100
1000
0000
1000
0100
1000
0000
1000
0100
1000
0000
1000
0100
1000
0000
,
1000
0100
1000
0000
1000
0100
1000
0000
1000
0100
1000
0000
1000
0100
1000
0000
,
1000
0100
1000
0000
1000
0100
1000
0000
1000
0100
1000
0000
1000
0100
1000
0000
,
0001
0100
0001
0100
0001
0100
0001
0100
0001
0100
0001
0100
0001
0100
0001
0100
,
0010
0001
0010
0001
1000
0100
1000
0100
0010
0001
0010
0001
1000
0100
1000
0100
,
1000
0100
1000
0100
0010
0001
0010
0001
,
1000
0100
1000
0100
0010
0001
0010
0001
,
1000
0100
1000
0100
0010
0001
0010
0001
,
1000
0100
1000
0100
0010
0001
0010
0001
,
1000
0100
1000
0100
0010
0001
0010
0001
,
1000
0100
1000
0100
0010
0001
0010
0001
,
MMMM
MMMM
MMMM
MMMM
MMMM
MMMM
MMMM
MMMM
MMMM
MMMM
MMMM
MMMM
MMMM
MMMM
MMMM
MMMM
MMMM
MMMM
MMMM
MMMM
MMMM
MMMM
MMMM
MMMM
MMMM
MMMM
MMMM
MMMM
MMMM
MMMM
MMMM
MMMM
MMMM
MMMM
MMMM
MMMM
MMMM
MMMM
MMMM
MMMM
MMMM
MMMM
MMMM
MMMM
MMMM
MMMM
MMMM
MMMM
MMMM
MMMM
MMMM
MMMM
MMMM
MMMM
MMMM
,
