#TITLE:Abstractlity inco mix;
#ARTIST:E music;
#TITLETRANSLIT:;
#SUBTITLETRANSLIT:;
#ARTISTTRANSLIT:;
#CREDIT:;
#GENRE:dance Hardcore;
#BANNER:Abstractlity inco mix-bn.png;
#BACKGROUND:Abstractlity incomix-bg.png;
#MUSIC:PARANOiA MAX (DIRTY MIX).ogg;
#SAMPLESTART:0.00;
#SAMPLELENGTH:15;
#BPMS:0=100.000;
#BGCHANGES:000.000=Abstractlity inco mix.AVI;

//---------------dance-single - ----------------
#NOTES:
     dance-single:
     :
     hard:
     9:
     :
0000
0000
0000
0000
,
0001
0010
0001
1000
0100
1000
0010
0100
0010
1000
0100
0001
0010
0001
1000
,
0001
0010
1000
0100
0001
0010
1000
0100
0010
0100
0010
1000
0100
0010
0001
,
0100
1000
0001
0010
1000
0100
0001
0100
1000
0010
0001
1000
0010
1000
0100
,
0001
0010
0001
1000
0001
1000
0010
0100
0001
1000
0100
0010
0001
0100
0010
,
1000
0001
1000
0001
0100
0010
1000
0001
0100
0010
1000
0100
0001
0100
1000
,
0001
1000
0001
1000
0010
1000
0001
0100
0001
0010
0100
0010
1000
0001
1000
,
0110
1001
1001
0011
1100
0011
0110
1001
0110
1100
0011
1100
0110
0011
1100
,
0110
0110
1001
1100
0011
0110
1001
1100
0011
0011
1100
0110
1001
1100
0011
,
1000
0100
1000
0100
0011
0100
0010
0100
1000
0011
1000
0011
1000
0100
1000
,
0100
0001
0100
0001
1000
0001
0100
0001
0010
1000
0100
0010
0100
0010
0100
,
0001
0010
0100
1000
0001
0010
0100
1000
0001
0010
0001
0010
1000
0100
1000
,
0100
0010
0100
0010
0100
0001
1000
0001
1000
0001
0010
0100
1000
0001
0010
,
1000
0100
0001
0010
0001
1000
1000
0010
0100
0001
0100
0100
1000
0010
0001
,
0001
0010
0100
1000
0001
0010
0100
1000
1000
0100
0010
0001
1000
0100
0010
,
0011
0110
1100
0011
0110
1100
0011
0110
1100
0011
0110
1100
1001
0110
1001
,
1000
0010
0100
0001
1000
0001
0100
0010
0110
0110
0001
0010
0100
1000
0011
,
0011
1000
0M10
1000
0001
01M0
0001
1000
M100
MM10
MMM1
MMM1
MM10
M100
1000
,
0001
001M
01MM
1MMM
01MM
001M
0001
0010
0100
0001
1000
0010
0100
0001
1000
,
0001
0010
0100
1000
1000
0100
0010
0001
1M00
0010
0100
0M01
0100
0M10
01M0
,
0M10
01M0
0001
0010
0100
1000
0100
0100
0M1M
M1M0
0001
0010
1000
0100
1001
,
1001
0110
1001
0110
0110
0011
1100
0110
0011
1100
0110
0011
0110
1100
0011
,
1100
0011
0110
1010
0101
1010
0101
0101
1010
1010
0110
0110
1001
1001
0110
,
0011
1100
1001
0101
1001
1010
1001
0101
1001
1010
1001
0101
1001
1010
1001
,
0101
1001
1010
0011
1100
0110
1001
1001
0110
0110
1001
1001
0110
0110
1001
,
0011
1100
0011
1100
0011
1100
0110
0011
1100
0110
0011
1100
0110
0011
1001
,
