#TITLE:the visionary;
#ARTIST:kita khyber;
#BANNER:the visionary-bn.png;
#BACKGROUND:the visionary-bg.png;
#GENRE:hard trance;
#CREDIT:a4bb 0101;
#MUSIC:the visionary.ogg;
#SAMPLESTART:99.03;
#SAMPLELENGTH:20;
#OFFSET:-0.020;
#MUSIC:the visionary.ogg;
#SAMPLESTART:39.040;
#SAMPLELENGTH:17.280;
#BPMS:0.000=129.000;

//---------------dance-single - ----------------
#NOTES:
     dance-single:
     :
     challenge:
     10:
     :
0000
0000
0000
0000
,
0000
0000
0000
0000
,
0000
0000
0000
0000
,
0000
0000
0000
0000
,
0100
0010
0100
0010
0100
0010
0100
0010
,
0001
0010
0100
1000
0100
0010
0100
0001
,
0010
1000
0100
0010
0001
0100
1000
0010
,
0100
0001
0100
0010
0100
0001
0010
1000
,
0001
0011
001M
0110
M100
0110
0M10
1M10
,
10M0
1100
M100
01M1
0001
0011
001M
0110
,
01M0
0101
00M1
1001
1M00
1100
01M0
0110
,
001M
1M10
1000
1010
0M10
0011
00M1
1001
,
0001
0011
001M
0110
M100
0110
0M10
1M10
,
10M0
1100
M100
01M1
0001
0011
001M
0110
,
01M0
0101
00M1
1001
1M00
1100
01M0
0110
,
001M
1M10
1000
1010
0M10
0011
00M1
1MM1
,
01M0
0110
M010
0M11
0001
011M
100M
0110
,
00M1
0110
01M0
01M1
M001
0M11
0010
110M
,
10M0
1100
0M10
0110
0100
M110
0010
0M11
,
00M1
0011
01M0
110M
1000
11M0
0100
M110
,
01M0
0110
M010
0M11
0001
011M
100M
0110
,
00M1
0110
01M0
01M1
M001
0M11
0010
110M
,
10M0
1100
0M10
0110
0100
M110
0010
0M11
,
00M1
0011
01M0
110M
1000
11M0
0100
M110
,
0001
0010
0001
0010
0100
1000
0100
1000
0100
0001
1000
0001
1000
0001
0010
1000
,
0010
1000
0100
0010
0001
0010
0001
0000
0100
0010
1000
0100
1000
0001
0010
0100
,
0010
0001
0010
0100
0010
0001
0010
0100
1000
0100
0010
0100
1000
0100
0010
0001
,
0001
1000
0001
1000
0010
1000
0100
1000
0100
1000
0100
0010
0001
0010
0100
1000
,
0001
0010
0001
0010
0100
1000
0100
1000
0100
0001
1000
0001
1000
0001
0010
1000
,
0010
1000
0100
0010
0001
0010
0001
0000
0100
0010
1000
0100
1000
0001
0010
0100
,
0010
0001
0010
0100
0010
0001
0010
0100
1000
0100
0010
0100
1000
0100
0010
0001
,
0001
1000
0001
1000
0010
1000
0100
1000
0100
1000
0100
0010
0001
0010
0100
1000
,
0001
0010
0001
0010
0100
1000
0100
1000
0100
0001
1000
0001
1000
0001
0010
1000
,
0010
1000
0100
0010
0001
0010
0001
0000
0100
0010
1000
0100
1000
0001
0010
0100
,
0010
0001
0010
0100
0010
0001
0010
0100
1000
0100
0010
0100
1000
0100
0010
0001
,
0001
1000
0001
1000
0010
1000
0100
1000
0100
1000
0100
0010
0001
0010
0100
1000
,
0001
0010
0001
0010
0100
1000
0100
1000
0100
0001
1000
0001
1000
0001
0010
1000
,
0010
1000
0100
0010
0001
0010
0001
0000
0100
0010
1000
0100
1000
0001
0010
0100
,
0010
0001
0010
0100
0010
0001
0010
0100
1000
0100
0010
0100
1000
0100
0010
0001
,
0001
1000
0001
1000
0010
1000
0100
1000
0100
1000
0100
0010
0001
0010
0100
1000
,
M22M
M00M
M00M
M331
,
2M2M
0M0M
0M0M
3M31
,
MM22
MM00
MM00
M133
,
M2M2
M0M0
M0M0
M313
,
M22M
M00M
M00M
M331
,
2M2M
0M0M
0M0M
3M31
,
MM22
MM00
MM00
M133
,
M2M2
M0M0
M0M0
M313
,
M001
001M
0100
1000
M100
0010
01MM
1000
01M0
0010
0001
M010
0100
0010
0001
0010
,
100M
M100
0010
0100
10M0
0100
0N10
0001
M010
010M
0010
0001
001M
0100
10M0
0010
,
1000
M100
1000
0001
1000
M100
1000
0001
001M
0001
0010
1000
0010
00M1
0010
1000
,
0001
001M
1M00
0010
0100
0M01
0010
0100
1M00
0100
0010
0100
1M00
0100
0010
0001
,
M001
001M
0100
1000
M100
0010
01MM
1000
01M0
0010
0001
M010
0100
0010
0001
0010
,
100M
M100
0010
0100
10M0
0100
0N10
0001
M010
010M
0010
0001
001M
0100
10M0
0010
,
1000
M100
1000
0001
1000
M100
1000
0001
001M
0001
0010
1000
0010
00M1
0010
1000
,
0001
001M
1M00
0010
0100
0M01
0010
0100
1M00
0100
0010
0100
1M00
0100
0010
0001
,
M001
001M
0100
1000
M100
0010
01MM
1000
01M0
0010
0001
M010
0100
0010
0001
0010
,
100M
M100
0010
0100
10M0
0100
0N10
0001
M010
010M
0010
0001
001M
0100
10M0
0010
,
1000
M100
1000
0001
1000
M100
1000
0001
001M
0001
0010
1000
0010
00M1
0010
1000
,
0001
001M
1M00
0010
0100
0M01
0010
0100
1M00
0100
0010
0100
1M00
0100
0010
0001
,
0102
0100
0010
0010
1000
1000
0100
0100
0010
0010
0100
0100
0010
0010
1000
1003
,
0210
0010
0001
0001
1000
1000
0010
0010
1000
1000
0010
0010
0001
0001
0010
0310
,
2001
0001
0001
0001
0001
0001
0001
0001
0001
0001
0001
0001
0001
0001
0001
3001
,
0100
0010
0100
0010
0100
0010
0100
0010
0100
0010
0100
0010
0100
0010
0100
0010
0100
0010
0100
0010
0100
0010
0100
0010
0100
0010
0100
1000
0100
0010
0001
0020
,
0002
0033
0000
0000
0000
0000
0000
0000
0000
0000
0000
0000
0000
0000
0000
0000
0000
0000
0000
0000
0000
0000
0000
0000
0000
0000
0000
0000
0000
0000
0000
0000
,
