#TITLE:star strom;
#SUBTITLE:(a4bb mix version);
#ARTIST:Zeta aspect;
#TITLETRANSLIT:;
#SUBTITLETRANSLIT:;
#ARTISTTRANSLIT:;
#GENRE:hardcore techo;
#CREDIT:a4bb 0101;
#BANNER:star atrom-bn.png;
#BACKGROUND:star strom-bg.png;
#LYRICSPATH:;
#CDTITLE:;
#MUSIC:star strom.mp3;
#OFFSET:-5.400;
#SAMPLESTART:30.000;
#SAMPLELENGTH:15.000;
#SELECTABLE:YES;
#BPMS:0.000=180.000,112.000=360.00000,;
#STOPS:;

//---------------dance-single - ----------------
#NOTES:
     dance-single:
     :
     challenge:
     10:
     :
0001
0010
0000
0010
0100
0000
0100
1000
0000
1000
0010
0000
,
0010
0001
0000
0001
0010
0000
0010
1000
0000
1000
0010
0000
,
0010
0001
0000
0001
0100
0000
0100
0010
0000
0010
1000
0000
,
1000
0000
0010
0000
0000
0000
0010
0000
0100
0000
0000
0000
0100
0000
0001
0000
0000
0000
0001
0010
0100
0010
0100
0010
,
0102
0000
0100
0000
0100
0000
0100
0103
,
2010
0000
0010
0000
0010
0000
0010
3010
,
0021
0000
0001
0000
0001
0000
0001
0031
,
1200
0000
1000
0000
1000
0000
1000
1300
,
0022
0000
0000
0000
0000
0000
0100
0033
,
2002
0000
0000
0000
0000
0000
0100
3003
,
0220
0000
0000
0000
0000
0000
0001
0330
,
2020
0000
0000
0000
0000
0000
0100
3030
,
0001
0010
0000
0010
0100
0000
0100
1000
0000
1000
0100
0000
,
0100
0001
0000
0001
0010
0000
0010
1000
0000
1000
0010
0000
,
0010
0100
0000
0100
0001
0000
0001
0010
0000
0010
0100
0000
,
0100
1000
0000
1000
0010
0000
0010
0100
0000
0100
0001
0010
,
0001
0100
0000
0100
0010
0000
0010
1000
0000
1000
0010
0000
,
0010
0100
0000
0100
0010
0000
0010
0001
0000
0001
0010
0000
,
0010
0100
0000
0100
1000
0000
1000
0100
0000
0100
0010
0000
,
0010
0100
0000
0100
0001
0000
0001
0010
0000
0100
1000
0010
,
1002
1000
0000
1000
1000
0000
1000
1000
0000
1000
1000
0003
,
2001
0001
0000
0001
0001
0000
0001
0001
0000
0001
0001
3000
,
1002
1000
0000
1000
1000
0000
1000
1000
0000
1000
1000
0003
,
2001
0001
0000
0001
0001
0000
0001
0001
0000
0001
0001
3000
,
1002
1000
0000
1000
1000
0000
1000
1000
0000
1000
1000
0003
,
2001
0001
0000
0001
0001
0000
0001
0001
0000
0001
0001
3000
,
1002
1000
0000
1000
1000
0000
1000
1000
0000
1000
1000
0003
,
2001
0001
0000
0001
0001
0000
0001
0001
0000
0001
0001
3000
,
1000
0100
0010
0001
,
0000
0100
0110
0000
,
1000
0010
0100
0001
,
0000
0010
0110
0000
,
1000
0100
0010
0001
,
0000
0100
0110
0000
,
1000
0010
0100
0001
,
0000
0010
0110
0000
,
2001
0010
0100
3010
,
0000
0011
1100
0000
,
0021
0100
1000
0031
,
0000
1100
0110
0000
,
2001
0010
0100
3010
,
0000
0011
1100
0000
,
0021
0100
1000
0031
,
0000
1100
0110
0000
,
0001
0100
0001
1000
,
0000
0011
0100
0000
,
1000
0001
0100
0001
,
0000
0011
0110
0000
,
0001
0100
0001
1000
,
0000
0011
0100
0000
,
1000
0001
0100
0001
,
0000
0011
0110
0000
,
2001
0010
0100
3001
,
0000
0100
0110
0000
,
1200
0010
1000
0301
,
0000
0110
0110
0000
,
2001
0010
0100
3001
,
0000
0100
0110
0000
,
1200
0010
1000
0301
,
0000
0110
0110
0000
,
0220
0000
0000
0000
,
1000
0000
0001
0000
,
1000
0000
0001
0330
,
0022
0000
0000
0000
,
0100
0000
0000
0000
,
1000
0000
0000
0033
,
0220
0000
0000
0000
,
1000
0000
0000
0330
,
0220
0000
0000
0000
,
1000
0000
0001
0000
,
1000
0000
0001
0330
,
0022
0000
0000
0000
,
0100
0000
0000
0000
,
1000
0000
0000
0033
,
0220
0000
0000
0000
,
1000
0000
0000
0330
,
2020
0000
0000
0000
,
0000
0000
0000
0000
,
0000
0000
0000
0000
,
0000
0000
0000
0000
,
0000
0000
0000
0000
,
0000
0000
0000
0000
,
0000
0000
0000
0000
,
0000
0000
0000
3030
,
0202
0000
0000
0000
,
0000
0000
0000
0000
,
0000
0000
0000
0000
,
0000
0000
0000
0000
,
0000
0000
0000
0000
,
0000
0000
0000
0000
,
0000
0000
0000
0000
,
0000
0000
0000
0303
,
100M
00M0
0M00
M000
001M
0M00
00M0
M000
,
01M0
000M
00M0
000M
0010
0M00
00M0
M000
,
0M01
M000
0M00
00M0
010M
00M0
0M00
M000
,
0010
0M00
00M0
000M
01M0
0M00
00M0
M000
,
001M
M000
000M
M000
00M1
M000
00M0
0M00
,
001M
00M0
0M00
M000
0M10
M000
00M0
0M00
,
010M
00M0
0M00
M000
100M
00M0
M000
0M00
,
00M1
000M
M000
0M00
00M1
0M00
000M
00M0
,
100M
00M0
0M00
M000
001M
0M00
00M0
M000
,
01M0
000M
00M0
000M
0010
0M00
00M0
M000
,
0M01
M000
0M00
00M0
010M
00M0
0M00
M000
,
0010
0M00
00M0
000M
01M0
0M00
00M0
M000
,
001M
M000
000M
M000
00M1
M000
00M0
0M00
,
001M
00M0
0M00
M000
0M10
M000
00M0
0M00
,
010M
00M0
0M00
M000
100M
00M0
M000
0M00
,
00M1
000M
M000
0M00
00M1
0M00
000M
00M0
,
