#TITLE:speedy;
#ARTIST:renard;
#BANNER:speedy-bn.png;
#BACKGROUND:speedy-bg.png;
#GENRE:happy hardcore:;
#CREDIT:a4bb 0101;
#MUSIC:abstractlit,ogg;
#SAMPLESTART:1.22;
#SAMPLELENGTH:15;
#OFFSET:-2.529;
#MUSIC:Speedy (vocal).ogg;
#SAMPLESTART:39.040;
#SAMPLELENGTH:17.280;
#BPMS:0.000=195.020,152.000=97.500,184.000=195.00;

//---------------dance-single - ----------------
#NOTES:
     dance-single:
     :
     challenge:
     10:
     :
00MM
0MM0
MM00
0MM0
,
00M0
MMMM
MM00
00MM
,
MMMM
00M0
MMMM
0M00
,
MMM0
00MM
0MMM
0M00
,
0001
0100
0000
0100
0010
0000
0010
1000
0000
1000
0100
0000
,
0001
0100
0000
0100
1000
0000
1000
0010
0000
0010
0100
0000
,
M21M
0001
1000
0001
1000
0010
1000
M01M
,
0001
0010
1000
0010
0001
0010
1000
M3M1
,
0021
0100
0001
0100
0001
1000
0001
1MMM
,
0100
1000
0001
0100
0001
1000
0100
MM31
,
1000
0100
1000
0000
0010
MMMM
0100
0001
0100
0000
0010
MMMM
1000
0100
0010
0000
,
0100
MMMM
0001
0010
0100
0000
0010
MMMM
1000
0010
1000
0000
0100
MMMM
0001
0100
,
0001
0000
0100
MMMM
1000
0100
1000
0000
0010
MMMM
0100
0010
1000
0000
0100
MMMM
,
0001
0010
0100
0000
0010
MMMM
0100
0010
0001
0000
1000
MMMM
0010
0100
0010
MMMM
,
1001
0010
1000
0010
1000
0100
0010
1000
,
0011
0100
0010
0001
1000
0010
0100
0001
,
0101
0010
0100
0001
1000
0100
0010
0100
,
1010
0001
0100
0010
1000
0100
0010
0001
,
1001
0010
1000
0010
1000
0100
0010
1000
,
0011
0100
0010
0001
1000
0010
0100
0001
,
0101
0010
0100
0001
1000
0100
0010
0100
,
1010
0001
0100
0010
1000
0100
0010
0001
,
0010
0100
MMMM
0100
0001
MMMM
0010
1000
MMMM
0100
0001
MMMM
,
0010
0100
MMMM
0100
0001
MMMM
0001
0010
MMMM
1000
0010
MMMM
,
1000
0100
MMMM
0100
1000
MMMM
1000
0010
MMMM
0001
1000
MMMM
,
1000
0010
MMMM
0010
0001
MMMM
0001
0010
MMMM
0100
1000
MMMM
,
0010
0100
MMMM
0100
0001
MMMM
0010
1000
MMMM
0100
0001
MMMM
,
0010
0100
MMMM
0100
0001
MMMM
0001
0010
MMMM
1000
0010
MMMM
,
1000
0100
MMMM
0100
1000
MMMM
1000
0010
MMMM
0001
1000
MMMM
,
1000
0010
MMMM
0010
0001
MMMM
0001
0010
MMMM
0100
1000
MMMM
,
001M
1000
0100
M001
0010
1000
MM11
MMMM
,
1000
0010
0100
M001
001M
1000
0100
MMMM
,
0M01
0100
001M
10M0
0100
0010
1000
M001
,
0001
010M
0010
10M0
010M
M010
0001
0100
,
MM11
1MMM
MM1M
M1MM
1MMM
MM1M
M1MM
MMM1
,
1MMM
MM1M
M1MM
1MMM
MM1M
MMM1
M1MM
MM1M
,
1MMM
MMM1
1MMM
MM1M
M1MM
MMM1
MM1M
1MMM
,
M1MM
MMM1
MM1M
1MMM
MM1M
M1MM
MMM1
1MMM
,
2MM1
0MM1
0MM1
3MM1
,
M12M
M10M
M10M
M13M
,
2MM1
0MM1
0MM1
3MM1
,
M12M
M10M
M10M
M13M
,
21MM
0M1M
0MM1
3M1M
,
M2M1
M01M
10MM
M31M
,
21MM
0M1M
0MM1
3M1M
,
M2M1
M01M
10MM
M31M
,
1100
0010
0001
0100
0010
1000
0100
0001
,
0110
0001
0010
1000
0100
0010
0100
0001
,
0101
0010
1000
0100
0010
1000
0010
0100
,
0011
0100
1000
0010
0100
0001
0010
0100
,
1000
0001
1000
0001
1000
0001
0000
0000
0100
0000
0000
0000
0001
0000
0000
0000
1000
0000
0000
0000
0010
0000
0000
0000
0100
0000
0000
0000
0010
0000
0000
0000
,
0011
1000
0010
0100
0001
0010
0100
1000
,
0110
0001
1000
0010
0100
0010
0001
1000
,
0110
0001
1000
0010
0100
0001
0010
2020
,
3030
M0M0
M1M0
M0M0
M0M0
M0M0
M0M0
M0M0
M0M0
M0M0
M0M0
M0M0
M0M0
M0M0
M0M0
M0M0
M0M0
M0M0
M0M0
M0M0
M0M0
M0M0
M0M0
M0M0
0000
0000
0000
0000
0000
0000
0000
0000
0000
0000
0000
0000
0000
0000
0000
0000
0000
0000
0000
0000
0000
0000
0000
0000
,
