#TITLE:pls IM sorry;
#SUBTITLE:;
#ARTIST:Empty;
#GENRE:lo-fi;
#CREDIT:a4bb 0101;
#MUSIC:empty - pls IM sorry cut 75 bpm;
#BANNER:pls IM sorry-bn.png;
#CDTITLE:a4bb 0101;
#BACKGROUND:pls IM sorry-bg.png;
#LYRICSPATH:;
#CDIMAGE:;
#OFFSET:0.000;
#SAMPLESTART:0.000;
#SAMPLELENGTH:15.000;
#SELECTABLE:YES;
#BPMS:0.000=75.000,105.000=-75.000,113.000=75.000;
#STOPS:;
#BGCHANGES:;
#ATTACKS:;
#FGCHANGES:;

//---------------dance-single - a4bb 0101----------------
#NOTES:
     dance-single:
     a4bb 0191:
     hard:
     7:
     0,0,0,0:
0000
0000
0000
0000
,
0000
0000
0000
0000
,
0000
0000
0000
0000
,
0000
0000
0000
0000
,
1000
0100
1000
0001
1000
0100
1000
0001
,
0001
0010
0001
1000
0001
0010
0001
1000
,
0100
0010
1000
0010
0100
0001
0010
1000
,
0100
0010
0100
0010
0001
0010
0100
1000
,
0001
0010
0001
MMMM
0010
0100
MMMM
0100
0010
MMMM
1000
0100
0010
0100
MMMM
0001
,
0010
0100
0010
MMMM
1000
0100
MMMM
0001
0010
MMMM
0001
1000
0010
0100
0001
1010
,
0001
0010
0001
MMMM
0010
0100
MMMM
0100
0010
MMMM
1000
0100
0010
0100
MMMM
0001
,
0010
0100
0010
MMMM
1000
0100
MMMM
0001
0010
MMMM
0001
1000
0010
0100
0001
1010
,
0100
0010
1000
0000
0001
0000
0100
0000
0001
0000
0000
0000
1010
0000
0000
0000
0100
0000
0010
0000
0100
0000
0000
0000
0101
0000
0000
0000
1000
0100
1000
0010
,
1000
0100
1000
0000
0001
0000
0010
0000
0100
0000
0000
0000
0110
0000
0000
0000
1000
0000
0100
0000
1000
0000
0100
0000
0010
0000
0100
0000
0001
0010
0001
0010
,
0100
0010
1000
0000
0001
0000
0100
0000
0001
0000
0000
0000
1010
0000
0000
0000
0100
0000
0010
0000
0100
0000
0000
0000
0101
0000
0000
0000
1000
0100
1000
0010
,
1000
0100
1000
0000
0001
0000
0010
0000
0100
0000
0000
0000
0110
0000
0000
0000
1000
0000
0100
0000
1000
0000
0100
0000
0010
0000
0100
0000
0001
0010
0001
0010
,
0001
0010
0100
0000
1100
0000
0000
0000
0010
0000
0110
0000
0000
0000
1000
0010
,
0001
0010
0100
1000
0100
0011
0000
0000
0000
0010
0000
0000
0000
0010
0110
0000
,
1000
0100
0010
0001
1000
0010
0100
0001
,
0001
0010
0100
1000
0001
0100
0010
1000
,
1000
0100
0010
0001
1000
0010
0100
0001
,
0001
0010
0100
1000
0001
0100
0010
1000
,
1000
0100
0010
0001
1000
0010
0100
0001
,
0001
0010
0100
1000
0001
0100
0010
1000
,
1000
0100
0010
0001
1000
0010
0100
0001
,
0001
0010
0100
1000
0001
0100
0010
1000
,
MMMM
MMMM
MMMM
MMMM
,
0000
0000
0000
0000
,
0001
0100
0010
1000
0100
0010
0001
0100
,
1000
0010
0100
1000
0100
0010
0001
0100
,
0010
0100
0010
0100
0010
1000
0010
0100
,
0001
0010
0100
1000
0001
0010
1000
0010
,
0100
0010
0100
1000
0001
0010
0100
1100
,
