#TITLE:Heartbeat;
#SUBTITLE:;
#ARTIST:E music;
#GENRE:Psytrance;
#CREDIT:a4bb 0101;
#MUSIC:Heartbeat - E music.mp3;
#BANNER:heartbeat-bn.png;
#CDTITLE:a4bb 0101;
#BACKGROUND:Heartbeat-bg.png;
#LYRICSPATH:;
#CDIMAGE:;
#OFFSET:0.000;
#SAMPLESTART:26.000;
#SAMPLELENGTH:15.000;
#SELECTABLE:YES;
#BPMS:0.000=140.000;
#STOPS:;
#BGCHANGES:;
#ATTACKS:0.000=9999999999:Tipsy;
#FGCHANGES:;

//---------------dance-single - a4bb 0101----------------
#NOTES:
     dance-single:
     a4bb 0191:
     challenge:
     10:
     0,0,0,0:
MMMM
MMMM
MMMM
MMMM
,
MMMM
MMMM
MMMM
MMMM
,
MMMM
MMMM
MMMM
MMMM
,
MMMM
MMMM
MMMM
MMMM
,
M11M
MM11
11MM
M11M
,
MM11
M11M
11MM
M11M
,
1MM1
M11M
1MM1
M11M
,
1M1M
M1M1
1M1M
M1M1
,
MM1M
1MMM
M1MM
MM1M
MMM1
MM1M
1MMM
MM1M
,
MMM1
1MMM
MM1M
M1MM
MMM1
MM1M
M1MM
1MMM
,
M1MM
1MMM
M1MM
MM1M
MMM1
M1MM
1MMM
MM1M
,
MMM1
MM1M
M1MM
1MMM
M1MM
MM1M
M1MM
MMM1
,
MM1M
M1MM
1MMM
M1MM
MM1M
MMM1
MM1M
M1MM
,
1MMM
M1MM
MM1M
M1MM
1MMM
M1MM
MM1M
MMM1
,
MM1M
MMM1
MM1M
1MMM
M1MM
MMM1
1MMM
MM1M
,
M1MM
MMM1
MM1M
M1MM
1MMM
M1MM
1MMM
MMM1
,
M1MM
MM1M
M11M
M1MM
1MMM
MMM1
1MMM
MM1M
,
M1MM
1MMM
M1MM
MM1M
M1MM
MM1M
MMM1
1MMM
,
MM1M
M1MM
MMM1
MM1M
M1MM
1MMM
M1MM
1MMM
,
M1MM
MM1M
MMM1
1MMM
MM1M
M1MM
M11M
MM1M
,
M1M2
MMM0
M1M0
MMM0
M1M0
MMM0
1MM0
1MM3
,
M2M1
M0MM
M0M1
M0MM
M0M1
M0MM
M0M1
13MM
,
MMM1
1MMM
MMM1
MMMM
1MMM
MMMM
1MMM
MMMM
,
MM1M
M1MM
MM1M
MMMM
MMM1
MMMM
MMM1
MMMM
,
M1MM
MM1M
M11M
M1MM
1MMM
MMM1
1MMM
MM1M
,
M1MM
1MMM
M1MM
MM1M
M1MM
MM1M
MMM1
1MMM
,
MM1M
M1MM
MMM1
MM1M
M1MM
1MMM
M1MM
1MMM
,
M1MM
MM1M
MMM1
1MMM
MM1M
M1MM
M11M
MM1M
,
M1M2
MMM0
M1M0
MMM0
M1M0
MMM0
1MM0
1MM3
,
M2M1
M0MM
M0M1
M0MM
M0M1
M0MM
M0M1
13MM
,
MMM1
1MMM
MMM1
MMMM
1MMM
MMMM
1MMM
MMMM
,
MM1M
M1MM
MM1M
MMMM
MMM1
MMMM
MMM1
MMMM
,
MM1M
1MMM
MMM1
M1MM
MM1M
M1MM
1MMM
MMM1
,
1MMM
M1MM
1MMM
M1MM
MM1M
MMM1
MM1M
MMM1
,
M1MM
MMM1
MM1M
MMM1
M1MM
MMM1
MM1M
MMM1
,
1MMM
M1MM
1MMM
MMM1
1MMM
M1MM
1MMM
MMM1
,
21MM
0MMM
0M1M
0MMM
0MM1
0MMM
0M1M
31MM
,
MM21
MM0M
M10M
MM0M
1M0M
MM0M
M10M
MM31
,
M1MM
MMMM
MM1M
MMMM
1MMM
MMMM
MMM1
MM1M
,
1MMM
MMMM
M1MM
MMMM
MM1M
MMMM
1MMM
M1MM
,
MM1M
1MMM
MMM1
M1MM
MM1M
M1MM
1MMM
MMM1
,
1MMM
M1MM
1MMM
M1MM
MM1M
MMM1
MM1M
MMM1
,
M1MM
MMM1
MM1M
MMM1
M1MM
MMM1
MM1M
MMM1
,
1MMM
M1MM
1MMM
MMM1
1MMM
M1MM
1MMM
MMM1
,
21MM
0MMM
0M1M
0MMM
0MM1
0MMM
0M1M
31MM
,
MM21
MM0M
M10M
MM0M
1M0M
MM0M
M10M
MM31
,
M1MM
MMMM
MM1M
MMMM
1MMM
MMMM
MMM1
MM1M
,
1MMM
MMMM
M1MM
MMMM
MM1M
MMMM
1MMM
M1MM
,
MM21
MM0M
M10M
MM0M
1M0M
MM0M
MM01
1M3M
,
M21M
M0MM
M0M1
M0MM
M01M
M0MM
10MM
M3M1
,
1M2M
MM0M
M10M
MM0M
MM01
MM0M
M10M
1M3M
,
MM12
MMM0
M1M0
MMM0
1MM0
MMM0
M1M0
MM13
,
MM21
MM0M
M10M
MM0M
1M0M
MM0M
MM01
1M3M
,
M21M
M0MM
M0M1
M0MM
M01M
M0MM
10MM
M3M1
,
1M2M
MM0M
M10M
MM0M
MM01
MM0M
M10M
1M3M
,
MM12
MMM0
M1M0
MMM0
1MM0
MMM0
M1M0
MM13
,
