#TITLE: dowload the future;
#ARTIST:DJ kiwi;
#BANNER:dowload the future-bn.png;
#BACKGROUND:dowload the future-bg.png;
#GENRE:trance;
#CREDIT:a4bb 0101;
#SAMPLESTART:1.22;
#SAMPLELENGTH:15;
#OFFSET:-0.040;
#MUSIC:dowload the future.ogg;
#SAMPLESTART:00.040;
#SAMPLELENGTH:17.280;
#BPMS:0.000=144.000;

//---------------dance-single - a4bb 0101----------------
#NOTES:
     dance-single:
     a4bb 0191:
     challenge:
     10:
     0,0,0,0:
0000
0000
0000
0000
,
0000
0000
0000
0000
,
0000
0000
0000
0000
,
0000
0000
0000
0000
,
1000
0100
0010
0001
0100
0010
1000
0001
,
0100
1000
0100
0010
0001
0010
1000
0100
,
0010
1000
0100
0010
0100
0001
0010
1000
,
2002
0000
00M0
3013
,
0001
1000
0010
0100
0001
0010
0100
1000
,
0100
0010
0100
1000
0100
0010
0001
0100
,
0010
1000
0001
0010
0100
1000
0100
0001
,
0010
1000
0010
0100
0010
1000
0010
0001
,
0010
1000
0100
0010
0100
1000
0100
0010
,
0001
0010
0100
1000
0100
0010
0001
0010
,
1000
0010
0100
0001
1000
0010
0100
0001
,
1000
0100
0010
0001
1000
0100
0010
0001
,
2000
3000
0020
0030
0200
0300
0002
0003
,
2000
3000
0200
0300
0020
0030
0002
0003
,
2000
3000
0002
0003
0200
0300
0020
0030
,
2000
3000
0200
0300
0020
0030
0002
0003
,
0020
0030
0200
0300
0020
0030
2000
3000
,
0020
0030
0200
0300
0002
0003
2000
3000
,
0002
0003
2000
3000
0020
0030
0200
0300
,
0002
0003
2000
3000
0002
0003
2000
3000
,
1000
0100
0010
0001
1000
0100
0010
0001
,
1000
0010
0100
0001
1000
0010
0100
0001
,
0010
0100
1000
0100
1000
0100
0010
0001
,
0010
0100
0010
0100
1000
0100
0010
0001
,
0100
0010
0100
0001
0100
0010
0100
0001
,
0100
1000
0100
0010
0100
0001
0100
1000
,
0100
0001
0100
1000
0100
0010
0001
0010
,
0100
1000
0100
0010
0100
1000
0001
0010
,
1020
0001
1000
0130
,
2100
0010
0100
3001
,
0012
0100
1000
0103
,
1200
0010
1000
0310
,
0021
1000
0100
0031
,
0201
0010
1000
0310
,
1002
0100
0010
0103
,
2001
0100
0010
3100
,
MM00
0000
0000
0000
,
MMM1
1000
0000
1000
0010
0000
0010
0100
0000
0100
0001
0000
0001
0010
0000
0100
,
0010
0000
0010
0100
0000
0100
0010
0100
0000
0010
0100
0000
0100
0001
0000
0001
,
0010
0000
0010
0100
0000
0100
1000
0000
1000
0100
0000
0010
0100
0000
0100
0001
,
0000
0001
0010
0000
1000
0100
0000
0100
0001
0000
0001
0100
0000
0100
0010
0100
,
0001
1000
0000
1000
0010
0000
0010
0100
0000
0100
0001
0000
0001
0010
0000
0100
,
0010
0000
0010
0100
0000
0100
0010
0100
0000
0010
0100
0000
0100
0001
0000
0001
,
0010
0000
0010
0100
0000
0100
1000
0000
1000
0100
0000
0010
0100
0000
0100
0001
,
0000
0001
0010
0000
1000
0100
0000
0100
0001
0000
0001
0100
0000
0100
0010
0100
,
0001
1000
0000
1000
0010
0000
0010
0100
0000
0100
0001
0000
0001
0010
0000
0100
,
0010
0000
0010
0100
0000
0100
0010
0100
0000
0010
0100
0000
0100
0001
0000
0001
,
0010
0000
0010
0100
0000
0100
1000
0000
1000
0100
0000
0010
0100
0000
0100
0001
,
0000
0001
0010
0000
1000
0100
0000
0100
0001
0000
0001
0100
0000
0100
0010
0100
,
0001
1000
0000
1000
0010
0000
0010
0100
0000
0100
0001
0000
0001
0010
0000
0100
,
0010
0000
0010
0100
0000
0100
0010
0100
0000
0010
0100
0000
0100
0001
0000
0001
,
0010
0000
0010
0100
0000
0100
1000
0000
1000
0100
0000
0010
0100
0000
0100
0001
,
0000
0001
0010
0000
1000
0100
0000
0100
0001
0000
0001
0100
0000
0100
0010
0100
,
0200
0000
0000
0000
,
0000
0000
0000
0300
,
0002
0000
0000
0000
,
0000
0000
0000
0003
,
2000
0000
0000
0000
,
0000
0000
0000
3000
,
0020
0000
0000
0000
,
0002
0000
0000
MM33
,
