#TITLE:virtual girl;
#ARTIST:DJ foniti feat. E music;
#BANNER:error.jpg;
#BACKGROUN:error.jpg;
#MUSIC:error.ogg;
#SAMPLESTART:1.22;
#SAMPLELENGTH:15;
#OFFSET:-5.500;
#SELECTABLE:YES;
#BPMS:0=180.000;
#BGCHANGES:;

//---------------dance-single - ----------------
#NOTES:
     dance-single:
     :
     challenge:
     11:
     :
0100
1000
0100
0010
0100
0010
0001
0010
,
0100
1000
0100
0010
0001
0010
0100
0010
,
0100
1000
0100
0010
0001
0010
0100
1000
,
0100
1000
0100
1000
0100
0010
0001
0010
,
0001
0100
0010
1000
0000
1000
0000
1000
0000
1000
0100
0010
0001
0010
0000
0010
,
0000
0010
0000
0010
0000
0100
0010
0001
0010
0100
1000
0000
1000
0000
1000
0000
,
1000
0000
1000
0000
1000
0000
1000
0000
1000
0000
1000
0000
1000
0100
0010
0100
,
1000
0100
0010
0001
0010
0100
0010
0100
1000
0100
0010
0001
0010
0100
1000
0100
,
0001
0100
0010
1000
0000
1000
0000
1000
0000
1000
0100
0010
0001
0010
0000
0010
,
0000
0010
0000
0010
0000
0100
0010
0001
0010
0100
1000
0000
1000
0000
1000
0000
,
1000
0000
1000
0000
1000
0000
1000
0000
1000
0000
1000
0000
1000
0100
0010
0100
,
1000
0100
0010
0001
0010
0100
0010
0100
1000
0100
0010
0001
0010
0100
1000
0100
,
0001
0010
0100
1000
,
0001
0010
0100
1000
,
1000
0100
0010
0001
,
1000
0100
0010
0001
,
0100
0000
0010
0000
1000
0010
0100
0001
,
0010
0100
1000
0100
0010
0100
0010
0001
,
0010
0100
1000
0100
0010
0100
0010
0001
,
1000
0100
0010
0001
1000
0100
0010
0001
1000
0100
0010
0001
1000
0100
0010
0001
,
1000
0100
0010
0001
1000
0100
0010
0001
1000
0100
0001
0000
0100
0000
0001
0000
,
0010
0100
1000
0100
0010
0001
0010
1000
,
0100
0010
0100
1000
0100
0010
0001
0010
,
0100
1000
0100
1000
0100
0010
0001
0010
,
0100
1000
0100
0010
0001
0010
0100
1000
,
0001
0010
0100
0010
0001
0010
0100
1000
,
0100
0010
0100
1000
0100
0010
0100
0010
,
0001
0010
0100
0010
0100
1000
0100
0010
,
0001
0010
0100
0010
0100
1000
0100
0010
,
0100
1000
0100
0010
0001
0010
0001
0010
,
0100
0010
0100
0010
0100
0010
1000
0001
,
0010
0100
1000
0100
0010
0100
0010
0001
,
0010
0100
1000
0100
0010
0001
0010
0100
,
0100
1000
0100
0010
0001
0010
0001
0010
,
0100
0010
0100
0010
0100
0010
1000
0001
,
0010
0100
1000
0100
0010
0100
0010
0001
,
0010
0100
1000
0100
0010
0001
0010
0100
,
1000
0100
0010
0001
0000
1000
0100
1000
0000
0101
0000
0001
0100
0001
0010
1000
,
0010
0100
1000
0100
0000
1010
0000
0100
0010
0001
0010
0100
0010
0000
0110
0000
,
1000
0010
0100
0001
0010
0100
1000
0100
0010
0100
0010
0001
0000
0011
0000
0100
,
0010
0001
0010
0100
1000
0100
0010
0001
0010
1100
0000
0001
0010
0100
0010
0100
,
1000
0100
0010
0001
0000
1000
0100
1000
0000
0101
0000
0001
0100
0001
0010
1000
,
0010
0100
1000
0100
0000
1010
0000
0100
0010
0001
0010
0100
0010
0000
0110
0000
,
1000
0010
0100
0001
0010
0100
1000
0100
0010
0100
0010
0001
0000
0011
0000
0100
,
0010
0001
0010
0000
0000
0000
0000
0000
0000
0000
0000
0000
0000
0000
0000
0000
,
