#TITLE:syc;
#ARTIST:dj foniti;
#BANNER:syc-bn.jpg;
#BACKGROUN:syc-bg.jpg;
#MUSIC:PARANOiA MAX (DIRTY MIX).ogg;
#SAMPLESTART:1.22;
#SAMPLELENGTH:15;
#SELECTABLE:YES;
#BPMS:0=140.000;
#BGCHANGES:;

//---------------dance-single - ----------------
#NOTES:
     dance-single:
     :
     challenge:
     10:
     :
0000
0000
0000
0000
,
0000
0000
0000
0000
,
0000
0000
0000
0000
,
0000
0000
0000
0000
,
0010
1000
0100
0001
0010
0100
0010
1000
,
0100
0010
0100
0010
0001
0010
0100
1000
,
0100
0010
0100
0010
0001
0010
0100
1000
,
0100
0010
0001
0010
0100
1000
0100
0001
,
1000
0100
1000
0000
0010
0000
0100
0000
0001
0000
0010
0000
0100
0000
1000
0000
,
0001
0010
1000
0000
0100
0000
0010
0000
0100
0000
0001
0000
0010
0000
0100
0000
,
1000
0100
0010
0000
0100
0000
0010
0000
1000
0000
0001
0000
0010
0000
0100
0000
,
0010
0100
0010
0000
0100
0000
0001
0000
0010
0000
1000
0000
0100
0000
0010
0000
,
1000
0100
1000
0000
0010
0000
0100
0000
0001
0000
0010
0000
0100
0000
1000
0000
,
0001
0010
1000
0000
0100
0000
0010
0000
0100
0000
0001
0000
0010
0000
0100
0000
,
1000
0100
0010
0000
0100
0000
0010
0000
1000
0000
0001
0000
0010
0000
0100
0000
,
0010
0100
0010
0000
0100
0000
0001
0000
0010
0000
1000
0000
0100
0000
0010
0000
,
0001
0010
0100
1000
0100
1000
0100
0010
,
0001
0010
0100
1000
0100
0010
0001
0010
,
0100
0010
0100
0010
0100
0010
0001
0010
,
0100
1000
0100
1000
0100
1000
0100
0010
,
0001
0010
0100
1000
0100
1000
0100
0010
,
0001
0010
0100
1000
0100
0010
0001
0010
,
0100
0010
0100
0010
0100
0010
0001
0010
,
0100
1000
0100
1000
0100
1000
0100
0010
,
0001
0010
1000
0010
0100
0001
0010
1000
,
0100
0010
0100
1000
0001
0100
0010
1000
,
0100
0010
0001
0100
1000
0010
0100
0001
,
0010
1000
0010
1000
0100
0010
0100
0010
,
0001
0010
1000
0010
0100
0001
0010
1000
,
0100
0010
0100
1000
0001
0100
0010
1000
,
0100
0010
0001
0100
1000
0010
0100
0001
,
0010
1000
0010
1000
0100
0010
0100
0010
,
1000
0100
1000
0100
1000
0100
1000
0100
1000
0100
1000
0100
1000
0100
1000
0100
,
0010
0001
0010
0001
0010
0001
0010
0001
0010
0001
0010
0001
0010
0001
0010
0001
,
0100
0010
0100
0010
0100
0010
0100
0010
0100
0010
0100
0010
0100
0010
0100
0010
,
0001
1000
0001
1000
0001
1000
0001
1000
0001
1000
0001
1000
0001
1000
0001
1000
,
1000
0100
1000
0100
1000
0100
1000
0100
1000
0100
1000
0100
1000
0100
1000
0100
,
0010
0001
0010
0001
0010
0001
0010
0001
0010
0001
0010
0001
0010
0001
0010
0001
,
0100
0010
0100
0010
0100
0010
0100
0010
0100
0010
0100
0010
0100
0010
0100
0010
,
0001
1000
0001
1000
0001
1000
0001
1000
0001
1000
0001
1000
0001
1000
0001
1000
,
