#TITLE:Strawberry Pocky;
#ARTIST:kita keru;
#BANNER:strawberry Pocky-bn.jpg;
#BACKGROUN: strawberry Pocky-bg.jpg;
#MUSIC:PARANOiA MAX (DIRTY MIX).ogg;
#SAMPLESTART:1.22;
#SAMPLELENGTH:15;
#SELECTABLE:YES;
#BPMS:0=165.000;
#BGCHANGES:;

//---------------dance-single - ----------------
#NOTES:
     dance-single:
     :
     challenge:
     14:
     :
0000
0000
0000
0000
,
1000
0100
1000
0100
0010
0001
0010
0100
1000
0100
0010
0100
0010
0100
0010
0100
,
1000
0100
0010
0001
0010
0100
0010
0001
0010
0100
1000
0100
0010
0100
1000
0100
,
1000
0100
1000
0100
0010
0001
0010
0100
1000
0100
0010
0100
0010
0100
0010
0100
,
1000
0100
0010
0001
0010
0100
0010
0001
0010
0100
1000
0100
0010
0100
1000
0100
,
1000
0100
1000
0100
0010
0001
0010
0100
1000
0100
0010
0100
0010
0100
0010
0100
,
1000
0100
0010
0001
0010
0100
0010
0001
0010
0100
1000
0100
0010
0100
1000
0100
,
1000
0100
1000
0100
0010
0001
0010
0100
1000
0100
0010
0100
0010
0100
0010
0100
,
1000
0100
0010
0001
0010
0100
0010
0001
0010
0100
1000
0100
0010
0100
1000
0100
,
0010
0001
0010
1000
0100
1000
0100
0010
0100
0001
0010
0001
0100
0010
1000
0100
,
0001
1000
0001
1000
0001
1000
0001
1000
0001
1000
0001
1000
0001
1000
0001
1000
0001
1000
0001
1000
0001
1000
0001
1000
,
0010
0001
0010
1000
0100
1000
0100
0010
0100
0001
0010
0001
0100
0010
1000
0100
,
0001
1000
0001
1000
0001
1000
0001
1000
0001
1000
0001
1000
0001
1000
0001
1000
0001
1000
0001
1000
0001
1000
0001
1000
,
0010
0001
0010
1000
0100
1000
0100
0010
0100
0001
0010
0001
0100
0010
1000
0100
,
0001
1000
0001
1000
0001
1000
0001
1000
0001
1000
0001
1000
0001
1000
0001
1000
0001
1000
0001
1000
0001
1000
0001
1000
,
0010
0001
0010
1000
0100
1000
0100
0010
0100
0001
0010
0001
0100
0010
1000
0100
,
0001
1000
0001
1000
0001
1000
0001
1000
0001
1000
0001
1000
0001
1000
0001
1000
0001
1000
0001
1000
0001
1000
0001
1000
,
0110
0010
0110
0100
1100
1000
1100
0100
,
0110
0010
0011
0001
0011
0010
0011
0001
,
0011
0010
0110
0100
1100
1000
1100
0100
,
0110
0010
0011
0001
0011
0010
0110
0100
,
0110
0010
0110
0100
1100
1000
1100
0100
,
0110
0010
0011
0001
0011
0010
0011
0001
,
0011
0010
0110
0100
1100
1000
1100
0100
,
0110
0010
0011
0001
0011
0010
0110
0100
,
0110
0010
0110
0100
1100
1000
1100
0100
,
0110
0010
0011
0001
0011
0010
0011
0001
,
0011
0010
0110
0100
1100
1000
1100
0100
,
0110
0010
0011
0001
0011
0010
0110
0100
,
0110
0010
0110
0100
1100
1000
1100
0100
,
0110
0010
0011
0001
0011
0010
0011
0001
,
0011
0010
0110
0100
1100
1000
1100
0100
,
0110
0010
0011
0001
0011
0010
0110
0100
,
0001
0010
0001
0010
0001
0010
0001
0010
0100
1000
0100
1000
0100
1000
0100
1000
,
0100
0010
0001
0010
0100
1000
0100
0010
0100
1000
0100
0010
0001
0010
0100
1000
,
0100
0010
0100
0010
0100
0010
0100
0010
0001
1000
0001
1000
0001
1000
0001
1000
,
0100
0010
0001
0010
0100
1000
0100
0010
0001
0010
0100
1000
0100
0010
0001
0010
,
0001
0010
0001
0010
0001
0010
0001
0010
0100
1000
0100
1000
0100
1000
0100
1000
,
0100
0010
0001
0010
0100
1000
0100
0010
0100
1000
0100
0010
0001
0010
0100
1000
,
0100
0010
0100
0010
0100
0010
0100
0010
0001
1000
0001
1000
0001
1000
0001
1000
,
0100
0010
0001
0010
0100
1000
0100
0010
0001
0010
0100
1000
0100
0010
0001
0010
,
1000
0100
1000
0100
0010
0001
0010
0001
0010
0100
1000
0100
0010
0100
0010
0001
,
0100
0010
0100
0010
0100
0010
0100
0010
0100
0010
0100
0010
0100
0010
0100
0010
0100
0010
0100
0010
0100
0010
0100
0010
,
1000
0100
1000
0100
0010
0001
0010
0001
0010
0100
1000
0100
0010
0100
0010
0001
,
0100
0010
0100
0010
0100
0010
0100
0010
0100
0010
0100
0010
0100
0010
0100
0010
0100
0010
0100
0010
0100
0010
0100
0010
,
1000
0100
1000
0100
0010
0001
0010
0001
0010
0100
1000
0100
0010
0100
0010
0001
,
0100
0010
0100
0010
0100
0010
0100
0010
0100
0010
0100
0010
0100
0010
0100
0010
0100
0010
0100
0010
0100
0010
0100
0010
,
1000
0100
1000
0100
0010
0001
0010
0001
0010
0100
1000
0100
0010
0100
0010
0001
,
0100
0010
0100
0010
0100
0010
0100
0010
0100
0010
0100
0010
0100
0010
0100
0010
0100
0010
0100
0010
0100
0010
0100
0010
,
0110
0011
0110
1100
0110
0011
1100
0110
,
1010
0101
0110
1001
1001
0011
0011
1100
,
1100
0011
0110
1100
0110
0011
0110
1100
,
0110
0110
1100
0011
0110
1010
0101
1010
,
0101
0110
1100
0110
1100
0011
1100
1100
,
0110
0011
0011
0110
0011
0101
0011
1001
,
0011
0110
0110
0110
0110
1100
0110
0011
,
0110
1100
1010
0101
0011
1100
0011
1100
,
0110
0110
0110
0101
1100
1010
1100
0110
,
0110
1010
0110
0101
0110
0110
0101
0101
,
0011
0110
0110
0101
1100
0011
0101
0110
,
0110
0110
0101
1010
0101
1010
0110
0110
,
0110
1001
0110
1001
1100
0110
0011
0110
,
0110
0110
0011
0011
0011
0011
0011
0011
,
0011
0110
0110
1100
1100
1100
1100
1100
,
0110
0110
0011
0011
0011
0110
0110
2200
,
0000
0000
0000
0000
,
0000
0000
0000
3300
,
