#TITLE: Paranoia (bounce connected mix);
#ARTIST:TAQ;
#BANNER:error-bn.jpg;
#BACKGROUN:error-bg.jpg;
#MUSIC:paranoia [bounce conneted mix].mp3;
#SAMPLESTART:1.22;
#SAMPLELENGTH:15;
#SELECTABLE:YES;
#OFFSET:-3.028;
#BPMS:0=162.070;
#BGCHANGES:;

//---------------dance-single - ----------------
#NOTES:
     dance-single:
     :
     challenge:
     10:
     :
0001
0010
0100
0000
1000
0000
0100
0000
,
0010
0001
0100
0000
0010
0000
1000
0000
,
0100
1000
0010
0000
0100
0000
0001
0000
,
0010
0100
1000
0000
0100
0000
0010
0000
,
0001
0010
0100
0000
1000
0000
0100
0000
,
0010
0001
0100
0000
0010
0000
1000
0000
,
0100
1000
0010
0000
0100
0000
0001
0000
,
0010
0100
1000
0000
0100
0000
0010
0000
,
MMM1
M1MM
MM1M
1MMM
,
M1MM
MM1M
M1MM
MM1M
,
MMM1
MM1M
M1MM
1MMM
,
M1MM
1MMM
M1MM
MM1M
,
MMM1
M1MM
MM1M
1MMM
,
M1MM
MM1M
M1MM
MM1M
,
MMM1
MM1M
M1MM
1MMM
,
M1MM
1MMM
M1MM
MM1M
,
1000
0010
0000
0100
0010
0100
1000
0000
,
0110
0101
0110
1100
,
0010
1000
0100
0000
0001
0000
0010
0000
,
0100
0010
0100
0000
0010
0000
1000
0000
,
1000
0100
0001
0000
0010
0000
0100
0000
,
0001
0010
0001
0000
0010
0000
0100
0000
,
0010
1000
0100
0000
0001
0000
0010
0000
,
0100
0010
0100
0000
0010
0000
1000
0000
,
1000
0100
0001
0000
0010
0000
0100
0000
,
0001
0010
0001
0000
0010
0000
0100
0000
,
0010
1000
0100
0000
0001
0000
0010
0000
,
0100
0010
0100
0000
0010
0000
1000
0000
,
1000
0100
0001
0000
0010
0000
0100
0000
,
0001
0010
0001
0000
0010
0000
0100
0000
,
0010
1000
0100
0000
0001
0000
0010
0000
,
0100
0010
0100
0000
0010
0000
1000
0000
,
0000
0000
0000
0000
,
0000
0000
0000
0000
,
1000
0010
1000
0000
0100
0010
0100
0000
0001
0010
0001
0000
0100
0010
0100
0000
,
1000
0100
1000
0000
0010
0100
0010
0000
0001
0010
0001
0000
1000
0100
1000
0010
,
1000
0010
1000
0000
0100
0010
0100
0000
0001
0010
0001
0000
0100
0010
0100
0000
,
1000
0100
1000
0000
0010
0100
0010
0000
0001
0010
0001
0000
1000
0100
1000
0010
,
1000
0010
1000
0000
0100
0010
0100
0000
0001
0010
0001
0000
0100
0010
0100
0000
,
1000
0100
1000
0000
0010
0100
0010
0000
0001
0010
0001
0000
1000
0100
1000
0010
,
1000
0010
1000
0000
0100
0010
0100
0000
0001
0010
0001
0000
0100
0010
0100
0000
,
1000
0100
1000
0000
0010
0100
0010
0000
0001
0010
0001
0000
1000
0100
1000
0010
,
0001
010M
0001
0100
0001
01M0
0010
1000
0010
1M00
0010
0100
0010
01M0
0001
0100
,
M001
0100
0010
010M
0010
0100
0010
0100
10M0
0100
1000
0100
100M
0010
1000
M010
,
0001
010M
0001
0100
0001
01M0
0010
1000
0010
1M00
0010
0100
0010
01M0
0001
0100
,
M001
0100
0010
010M
0010
0100
0010
0100
10M0
0100
1000
0100
100M
0010
1000
M010
,
0001
010M
0001
0100
0001
01M0
0010
1000
0010
1M00
0010
0100
0010
01M0
0001
0100
,
M001
0100
0010
010M
0010
0100
0010
0100
10M0
0100
1000
0100
100M
0010
1000
M010
,
0001
010M
0001
0100
0001
01M0
0010
1000
0010
1M00
0010
0100
0010
01M0
0001
0100
,
M001
0100
0010
010M
0010
0100
0010
0100
10M0
0100
1000
0100
100M
0010
1000
M020
,
0000
0000
0100
0030
0000
0000
0000
0000
0000
0000
0000
0000
0000
0000
0000
0000
,
