#TITLE:error;
#ARTIST:e music;
#BANNER:error-bn.jpg;
#BACKGROUN:error-bg.jpg;
#MUSIC:error.ogg;
#SAMPLESTART:1.22;
#SAMPLELENGTH:15;
#SELECTABLE:YES;
#BPMS:0=140.000;
#BGCHANGES:;

//---------------dance-single - ----------------
#NOTES:
     dance-single:
     :
     challenge:
     10:
     :
0000
0000
0000
0000
,
0000
0000
0000
9000
,
0000
0000
0000
0000
,
0000
0000
0000
0000
,
0100
1100
0010
0011
,
0100
1100
0010
0011
,
0100
1100
0010
0011
,
0100
1100
0010
0011
,
0100
0010
0100
1000
0100
0010
0001
0010
,
0100
1000
0100
0010
0001
0010
0100
0010
,
0100
1000
0100
0010
0001
0010
0100
1000
,
0100
0010
0100
0010
0100
0010
0001
0010
,
0100
0010
0100
1000
0100
0010
0001
0010
,
0100
1000
0100
0010
0001
0010
0100
0010
,
0100
1000
0100
0010
0001
0010
0100
1000
,
0100
0010
0100
0010
0100
0010
0001
0010
,
0100
1100
0010
0011
,
0100
1100
0010
0011
,
0100
1100
0010
0011
,
0100
1100
0010
0011
,
0100
1100
0010
0011
,
0100
1100
0010
0011
,
0100
1100
0010
0011
,
0100
1100
0010
0011
,
0100
1000
0100
0010
0001
0010
0100
1000
,
0100
0010
0100
0010
0001
0010
0100
1000
,
0100
0010
0001
0010
0100
0010
0100
1000
,
0100
0010
0100
1000
0100
0010
0001
0010
,
0100
1000
0100
0010
0001
0010
0100
1000
,
0100
0010
0100
0010
0001
0010
0100
1000
,
0100
0010
0001
0010
0100
0010
0100
1000
,
0100
0010
0100
1000
0100
0010
0001
0010
,
0100
0010
0100
0000
0001
0010
0001
0000
1000
0100
1000
0000
0010
0100
0010
0000
,
0001
1000
0001
0000
0100
0010
0100
0000
0001
0010
0001
0000
1000
0100
1000
0000
,
0010
0100
0010
0000
0100
0010
0100
0000
0010
0001
0010
0000
0100
1000
0100
0000
,
0100
0010
0100
0000
0001
1000
0001
0000
0010
1000
0010
0000
0100
0001
0100
0000
,
0100
0010
0100
0000
0001
0010
0001
0000
1000
0100
1000
0000
0010
0100
0010
0000
,
0001
1000
0001
0000
0100
0010
0100
0000
0001
0010
0001
0000
1000
0100
1000
0000
,
0010
0100
0010
0000
0100
0010
0100
0000
0010
0001
0010
0000
0100
1000
0100
0000
,
0100
0010
0100
0000
0001
1000
0001
0000
0010
1000
0010
0000
0100
0001
0100
0000
,
0001
0100
0001
M010
0001
0100
0001
0010
0001
0M10
0001
0100
001M
0100
10M0
0100
,
0010
00M1
0010
0100
001M
0100
1000
0100
M010
0001
0010
0001
0010
0100
100M
0100
,
1000
0100
10M0
0100
0010
0100
0010
M100
0010
0001
0010
0100
100M
0100
0010
M001
,
0010
0001
0010
010M
1000
0100
0001
0100
0010
0100
0001
0100
0010
M100
0001
0100
,
0M10
0001
0010
0100
100M
0100
1000
0100
0010
0100
001M
0100
0010
0M01
0010
01M0
,
1000
0100
0010
0001
M010
0100
1000
0100
0010
010M
0010
1000
0000
0000
0000
0000
,
