#TITLE:Abstractlity pine mix;
#ARTIST:dj foniti;
#BANNER:Abstractlity pine mix-bn.jpg;
#BACKGROUND:Abstractlity pine mix-bg.jpg;
#MUSIC:PARANOiA MAX (DIRTY MIX).ogg;
#SAMPLESTART:1.22;
#SAMPLELENGTH:15;
#SELECTABLE:YES;
#DISPLAYBPM:>_<;
#BPMS:0=120.000,120.000=100000000000000000000000000000000000000000000000000000.000;
#BGCHANGES:;

//---------------dance-single - ----------------
#NOTES:
     dance-single:
     :
     challenge:
     8:
     :
0000
0000
0000
0000
,
0001
0100
1000
0010
0100
00M1
0010
1000
,
0010
1000
0001
0010
10M0
0010
0100
0001
,
1000
0100
0001
0100
1000
M001
0010
1000
,
0010
00M1
100M
M010
10M0
0001
0100
0001
,
1000
0001
1000
0010
1000
0001
0100
0001
,
0010
010M
0010
1000
M001
001M
0001
1000
,
0010
01M0
0M10
0100
0001
0100
0010
10M0
,
0010
1000
M100
0M10
01M0
001M
0001
0010
,
1000
0100
1000
0100
0001
0010
0100
1000
,
0100
0M10
01M0
1000
0001
0010
0100
0010
,
00M1
1000
0010
0100
0001
0010
0100
1000
,
1000
0100
0010
0001
0010
0100
0010
0100
,
1000
M001
010M
0M10
1MMM
MM1M
1MMM
MM1M
,
1000
0100
0010
0001
100M
M100
0010
0001
,
1000
0001
0100
0010
1MMM
0001
0100
MM1M
,
001M
0001
0010
0100
1000
0100
0M10
0100
,
0010
0010
00M1
0001
010M
0100
1M00
1000
,
M001
0001
010M
0100
1M00
1000
M010
0010
,
0001
001M
0100
1000
0001
0010
0100
1M00
,
0100
0M10
0001
0010
0001
0010
0100
1MMM
,
0001
0010
0001
0010
0100
0010
0100
1000
,
0100
0001
0010
0100
1000
0100
0010
0001
,
1000
0100
1M00
0010
0100
0010
0001
001M
,
0001
MM10
0100
0010
0100
10MM
0100
0001
,
0100
0001
0100
0010
1000
0001
0100
0010
,
0000
0100
0000
0001
0000
0100
MMMM
1000
0000
0010
0000
1000
MMMM
0100
0010
0100
,
0000
0001
0000
0100
MMMM
1000
0000
0010
0000
0001
0000
0100
MMMM
0001
0100
0001
,
0001
0010
0001
0010
1000
0010
1000
0010
1000
0001
1000
0001
0100
0010
0100
0010
,
0000
0001
0000
0100
0000
0001
0000
0010
0000
0001
0000
0010
0000
1000
0000
0100
0000
1000
0000
0010
0000
0100
0000
0010
0100
0010
0100
,
