#TITLE:Talk Dirty;
#SUBTITLE:;
#ARTIST:Cody Caron;
#TITLETRANSLIT:;
#SUBTITLETRANSLIT:;
#ARTISTTRANSLIT:;
#GENRE:Alt;
#CREDIT:;
#BANNER:Talk Dirty banner.png;
#BACKGROUND:Talk Dirty bg.png;
#LYRICSPATH:;
#CDTITLE:;
#MUSIC:Talk Dirty.mp3;
#OFFSET:-0.040000;
#SAMPLESTART:41.099998;
#SAMPLELENGTH:15.000000;
#SELECTABLE:YES;
#BPMS:0.000000=100.500000
;
#STOPS:
;
#BGCHANGES:;
#KEYSOUNDS:;
#ATTACKS:;

//---------------dance-single - ----------------
#NOTES:
     dance-single:
     :
     Hard:
     12:
     0.547777,0.498043,0.394490,0.236694,0.433939,243.000000,218.000000,25.000000,15.000000,0.000000,0.000000,0.547777,0.498043,0.394490,0.236694,0.433939,243.000000,218.000000,25.000000,15.000000,0.000000,0.000000:
// measure 0
0000
0000
0000
0000
,  // measure 1
0000
0000
0000
0110
0000
1000
0010
0100
,  // measure 2
0000
0010
1000
0101
0000
0100
0010
1000
,  // measure 3
0000
1000
0010
0101
0000
0010
0100
1001
,  // measure 4
0000
0100
0010
0110
0100
1100
0100
2002
,  // measure 5
0000
0000
0000
0000
3003
0000
0100
0000
0010
0000
0001
0000
1000
0010
0100
0000
,  // measure 6
1000
0101
1000
2001
0100
3010
0001
1000
,  // measure 7
0100
0000
0110
0000
1000
0000
1100
0000
0001
0000
0010
0000
0100
0001
1000
0000
,  // measure 8
0020
0000
0130
0000
1000
0000
0101
0000
0010
1000
0200
0000
0301
0000
1000
0100
,  // measure 9
0010
0001
1100
0000
0100
0000
0011
0000
0010
1000
0000
0001
0000
1000
0100
0000
,  // measure 10
0001
0000
0020
0000
0000
0000
0030
1000
0100
0000
0000
0001
0010
0000
1000
0000
,  // measure 11
0010
0000
0100
0000
0001
0000
1100
0000
0100
0000
0101
0000
0010
0001
1000
0000
,  // measure 12
0100
0000
1001
0000
0100
0000
0010
0000
1000
0010
0001
0000
1000
0000
0001
0200
,  // measure 13
0000
0000
0000
0000
0300
0000
1001
0000
0001
1000
0000
0001
0100
0000
0001
0000
,  // measure 14
0001
1000
0000
0100
0020
0000
0130
0000
1000
0100
1000
0100
1000
0000
0100
0000
,  // measure 15
0001
2000
0000
0000
3001
0000
2002
3003
0001
0100
0001
0100
0001
1000
0110
0000
,  // measure 16
0001
2000
0000
0000
3001
0000
0110
0000
0100
0000
1001
0000
0010
0000
0220
0000
,  // measure 17
0000
0000
0000
0000
0330
0000
1001
0000
0100
0010
0100
0000
0100
0000
0001
1000
,  // measure 18
0010
0100
0001
0000
1000
0100
1000
0100
0001
1000
0100
0000
0001
0000
0010
0000
,  // measure 19
0001
0000
0010
1000
0100
0010
0000
0000
1000
0100
1000
0000
1000
0000
0001
0010
,  // measure 20
0100
1000
0100
0000
0001
0100
0001
0100
0001
0010
1000
0000
0001
0000
0100
0000
,  // measure 21
1000
0000
0100
0010
0001
1000
0000
0000
0001
1000
0001
0000
1000
0000
0100
0010
,  // measure 22
0001
0100
1000
0000
1000
0100
0010
0001
1000
0100
0001
0000
0010
0000
1000
0000
,  // measure 23
0010
0000
0001
0100
1000
0001
0000
0000
0010
0100
1000
0000
1000
0000
1000
0100
,  // measure 24
0010
0001
0100
0000
1000
0010
0001
0100
1000
0010
0001
0000
0100
0000
1100
0000
,  // measure 25
1000
0002
0000
0000
0003
0000
0000
0000
0000
0000
0000
0000
0000
0000
0000
0000
;
