#TITLE:no more sorrow;
#SUBTITLE:;
#ARTIST:Unknown artist;
#TITLETRANSLIT:;
#SUBTITLETRANSLIT:;
#ARTISTTRANSLIT:;
#CREDIT:;
#BANNER:;
#BACKGROUND:;
#LYRICSPATH:;
#CDTITLE:;
#MUSIC:no more sorrow.mp3;
#OFFSET:0.000;
#SAMPLESTART:59.670;
#SAMPLELENGTH:12.000;
#SELECTABLE:YES;
#BPMS:0.000=132.620;
#STOPS:0.000=0.820
;
#BGCHANGES:;

//---------------dance-single - ----------------
#NOTES:
     dance-single:
     :
     Easy:
     4:
     0.148,0.106,0.000,0.034,0.000: // measure 1
0000
0000
0000
0000
,  // measure 2
0000
0000
0000
0000
,  // measure 3
0000
0000
0000
0000
,  // measure 4
0000
0000
0000
0100
,  // measure 5
0000
1000
0000
0001
,  // measure 6
0000
1000
0000
0001
,  // measure 7
0000
1000
0000
0100
,  // measure 8
0000
0100
0000
0200
,  // measure 9
0000
0000
0000
0310
,  // measure 10
0000
0001
0000
0100
,  // measure 11
0000
1000
0000
0100
,  // measure 12
0000
0001
0000
0010
,  // measure 13
0000
1000
0000
0010
,  // measure 14
0000
1000
0000
0100
,  // measure 15
0000
0001
0000
0010
,  // measure 16
0000
0010
0000
0001
,  // measure 17
0000
0100
0000
1000
,  // measure 18
0000
0010
0000
0100
,  // measure 19
0000
0001
0000
0010
,  // measure 20
0000
0001
0000
0100
,  // measure 21
0000
1000
0000
0100
,  // measure 22
0000
0001
0000
0100
,  // measure 23
0000
0010
0000
1000
,  // measure 24
0000
0100
0000
1000
,  // measure 25
0000
0010
0000
0001
,  // measure 26
0000
0010
0000
0001
,  // measure 27
0000
0100
0000
1000
,  // measure 28
0000
0001
0000
0010
,  // measure 29
0000
0100
0000
1000
,  // measure 30
0000
0001
0000
0100
,  // measure 31
0000
1000
0000
0010
,  // measure 32
0000
0100
0000
0020
,  // measure 33
0000
0130
0000
1000
,  // measure 34
0000
1000
0000
0001
,  // measure 35
0000
0001
0000
0100
,  // measure 36
0000
0100
0000
0010
,  // measure 37
0000
0010
0000
1000
,  // measure 38
0000
1000
0000
0001
,  // measure 39
0000
0001
0000
0100
,  // measure 40
0000
0010
0000
0100
,  // measure 41
0000
0010
0000
1000
,  // measure 42
0000
0100
0000
0001
,  // measure 43
0000
0100
0000
1000
,  // measure 44
0000
0100
0000
0010
,  // measure 45
0000
0001
0000
0010
,  // measure 46
0000
0100
0000
1000
,  // measure 47
0000
0001
0000
0001
,  // measure 48
0000
0010
0000
0100
,  // measure 49
0000
1000
0000
0100
,  // measure 50
0000
0010
0000
1000
,  // measure 51
0000
0100
0000
1000
,  // measure 52
0000
0001
0000
0010
,  // measure 53
0000
0001
0000
0010
,  // measure 54
0000
0100
0000
0200
,  // measure 55
0000
0310
0000
0001
,  // measure 56
0000
1000
0000
0100
,  // measure 57
0000
1000
0000
0010
,  // measure 58
0000
0100
0000
0001
,  // measure 59
0000
0010
0000
1000
,  // measure 60
0000
0100
0000
1000
,  // measure 61
0000
0010
0000
0001
,  // measure 62
0000
0100
0000
1000
,  // measure 63
0000
0010
0000
0200
,  // measure 64
0000
0310
0000
0000
;

//---------------dance-single - Copied from----------------
#NOTES:
     dance-single:
     Copied from:
     Medium:
     6:
     0.285,0.265,0.034,0.034,0.000:
0000
0000
0000
0000
,
0000
0000
0000
0000
,
0000
0000
0000
0000
,
0000
0000
0100
0100
,
1000
1000
0001
0001
,
1000
1000
0001
0001
,
1000
0010
0100
0010
,
0100
0010
0200
0000
,
0000
0000
0310
1000
,
0001
1000
0100
0001
,
1000
0001
0100
0010
,
0001
0010
0010
0100
,
1000
0001
0010
0100
,
1000
0100
0100
0100
,
0001
0100
0010
0100
,
0010
0100
0001
0100
,
0100
0000
1010
0000
,
0010
1000
0100
0010
,
0001
0100
0010
0100
,
0001
0010
0100
1000
,
1000
0001
0100
1000
,
0001
0010
0100
1000
,
0010
0001
1000
0010
,
0100
0010
1000
0100
,
0010
0100
0001
0100
,
0010
0100
0001
0010
,
0100
0010
1000
0010
,
0001
0100
0010
0001
,
0100
0010
1000
0100
,
0001
0010
0100
0001
,
1000
0100
0010
1000
,
0100
1000
0120
0000
,
0130
0000
1000
0010
,
1000
0010
0001
0100
,
0001
0010
0100
0010
,
0100
1000
0010
0001
,
0010
0001
1000
0100
,
1000
0100
0001
0100
,
0001
0010
0100
0001
,
0010
0001
0100
1000
,
0010
0001
1000
0010
,
0100
0010
0001
0010
,
0100
0010
1000
0010
,
0100
0001
0010
1000
,
0001
1000
0010
1000
,
0100
0001
1000
0100
,
0001
0100
0001
0100
,
0010
0001
0100
0001
,
1000
0010
0100
1000
,
0010
0001
1000
0010
,
0100
0001
1000
0010
,
0001
1000
0010
0100
,
0001
0100
0010
0001
,
0100
1000
0210
0000
,
0310
0000
0001
0010
,
1000
0001
0100
0010
,
1000
0001
0010
1000
,
0100
0100
0001
0100
,
0010
0100
1000
0010
,
0100
0010
1000
0100
,
0010
0100
0001
0010
,
0100
0010
1000
0001
,
0010
1000
0210
0000
,
0310
0000
0000
0000
;

//---------------dance-single - ----------------
#NOTES:
     dance-single:
     :
     Hard:
     9:
     0.603,0.565,0.303,0.202,0.858:
0000
0000
0000
0000
,
0000
0000
0000
0000
,
0000
0000
0000
0000
,
0000
0000
0000
0000
0000
0000
0100
0010
0100
0010
0100
0010
,
0100
0000
0000
0100
0010
0100
0010
0000
0000
1000
0100
0010
,
1000
0100
0010
0001
0010
0100
0001
0010
0100
1000
0100
0010
,
0001
0000
0000
0100
1000
0100
0001
0000
0000
0001
0010
1000
,
0001
0100
1000
0100
0001
0100
0100
0000
0000
0100
0000
0000
,
0100
0000
0000
0100
0000
0000
0110
0000
0001
1000
0000
0100
,
0010
0000
0001
0010
0000
1000
0001
0000
0010
1000
0000
0100
,
0001
0000
0010
1000
0000
0100
0001
0000
0010
1000
0000
0100
,
0010
0000
1000
0010
0000
0001
0100
0000
1000
0010
0000
0100
,
0001
0000
0010
1000
0000
0100
1000
0000
0010
0001
0000
0100
,
0010
0000
0001
1000
0000
0100
0001
0000
0100
1000
0000
0100
,
0001
0000
0100
1000
0000
0001
1000
0000
0010
1000
0000
0100
,
1000
0000
0001
1000
0000
1000
0001
0000
0100
0001
0000
0010
,
0001
0000
1000
0001
0000
0000
0100
0001
0100
1000
0100
0001
,
0100
0000
0000
0100
1000
0100
0001
0000
0000
1000
0100
0001
,
0010
0100
1000
0100
0010
0001
0100
1000
0100
0001
0100
1000
,
0100
0000
0000
0010
1000
0100
0001
0000
0000
0010
0001
0100
,
1000
0010
0001
0010
0100
1000
0110
0000
0001
1000
0000
0100
,
0010
0000
0001
0010
0000
0100
0010
0000
1000
0100
0000
1000
,
0001
0000
0100
0010
0000
0010
0001
0000
0100
0010
0000
0100
,
1000
0000
0100
0010
0000
1000
0100
0000
0001
0010
0000
0100
,
0001
0000
0010
1000
0000
0100
1000
0000
0100
0001
0000
0010
,
0001
0000
0010
0100
0000
0010
1000
0000
0010
0001
0000
0100
,
1000
0000
0010
0100
0000
0001
0010
0000
1000
0001
0000
0100
,
0010
0000
0010
1000
0000
0010
0001
0000
0100
0001
0000
0100
,
1000
0000
0010
0100
0000
0000
1200
0000
0000
0010
0000
0000
,
0001
1300
0021
0100
,
1000
0031
2100
3100
,
0102
0103
0020
0100
,
0130
0000
0000
0000
0000
0100
1000
0000
0100
1000
0000
0100
,
1000
0000
0100
1000
0000
0100
0001
0000
0100
0001
0000
0100
,
0001
0000
0100
0001
0000
0010
0100
0000
0010
1000
0000
0010
,
0001
0000
0010
0100
0000
0100
0001
0000
0100
1000
0000
0100
,
0010
0000
0100
0010
0000
0000
1020
0000
0000
1030
0000
0000
,
0021
0031
2010
3001
,
0012
0000
0000
1003
0000
0010
0100
0000
1000
0100
0000
0001
,
0100
0000
0010
0100
0000
0000
1000
0100
0001
0100
0000
0000
,
1000
0001
0100
0010
0000
0000
0100
1000
0100
0001
0010
1000
,
0100
0000
0000
0001
0100
1000
0010
0000
0000
0001
0100
1000
,
0100
0001
0100
1000
0000
0000
1001
0000
0000
1100
0000
0000
,
0101
0110
1001
0011
,
1010
0000
0000
0110
0000
1000
0001
0000
0001
1000
0000
1000
,
0001
0000
0001
1000
0000
0000
0100
1000
0010
0001
0100
0010
,
0100
0000
0000
2100
0000
0000
3001
0100
0010
0001
0010
0100
,
1000
0000
0000
0110
0000
0000
1000
0001
0100
0010
0100
1000
,
0100
0001
0010
1000
0100
1000
0101
0000
0000
0011
0000
0000
,
1010
1100
0110
1001
,
0220
0330
2100
3100
,
0102
0103
1020
0130
,
0021
0130
1100
0101
,
0011
1010
0220
0000
,
0330
0000
0000
0000
0000
1000
0100
0000
0100
0010
0000
0010
,
0001
0000
0001
1000
0000
0001
0010
0000
0010
0100
0000
0100
,
1000
0000
1000
0001
0000
0010
1000
0000
0100
0001
0000
0001
,
0010
0000
1000
0100
0000
0001
1000
0000
1000
0001
0000
0001
,
1000
0000
1000
0001
0000
0010
1000
0010
0001
0100
0000
0010
,
1000
0100
0001
1000
0000
0010
1000
0100
0001
0100
1000
0100
,
0010
0100
1000
0001
0000
0010
0100
0000
0010
0100
0000
0100
,
0010
0000
0010
0100
0000
1000
0001
0100
0010
1000
0000
0010
,
0100
0001
0010
1000
0000
0100
0002
0000
0000
0203
0000
0000
,
0320
2030
3200
0302
,
1003
0000
0000
0000
;
