#TITLE:moon_child;
#SUBTITLE:;
#ARTIST:Shounen Radio;
#TITLETRANSLIT:;
#SUBTITLETRANSLIT:;
#ARTISTTRANSLIT:;
#GENRE:;
#CREDIT:;
#BANNER:;
#BACKGROUND:moon child-bg.png;
#LYRICSPATH:;
#CDTITLE:;
#MUSIC:moon child.mp3;
#OFFSET:-9.045000;
#SAMPLESTART:21.160000;
#SAMPLELENGTH:12.500000;
#SELECTABLE:YES;
#DISPLAYBPM:160.000000;
#BPMS:0.000000=156.000000
,16.000000=160.000000
,269.000000=156.000000
;
#STOPS:
;
#BGCHANGES:;
#KEYSOUNDS:;
#ATTACKS:;

//---------------dance-single - ----------------
#NOTES:
     dance-single:
     :
     Challenge:
     12:
     0.676627,0.837354,0.185899,0.161651,0.323303,586.000000,563.000000,23.000000,20.000000,0.000000,0.000000,0.676627,0.837354,0.185899,0.161651,0.323303,586.000000,563.000000,23.000000,20.000000,0.000000,0.000000:
0000
0000
0000
0000
,
0000
0000
0000
0000
,
0000
0000
0000
0000
,
0000
0000
0000
0000
,
1000
1000
0100
0100
,
0001
0001
0100
0100
,
0010
0010
0001
0001
,
0100
0100
1000
1000
,
0010
0010
1000
0100
,
0001
0010
1000
0100
,
1000
0100
0001
0010
,
1000
0100
0001
0010
0100
0001
0100
1000
,
0100
0010
0001
1000
0100
0010
0001
0000
0010
0000
0010
0000
0001
0000
0010
0000
,
0010
1000
0100
0010
0010
1000
0100
0001
,
0010
0100
0001
0100
1000
0100
1000
0000
0010
0000
0100
0000
0001
0000
0100
0000
,
1000
0010
0100
1000
0100
0010
1000
0001
,
0010
0001
0100
1000
0100
0001
0010
0000
0100
0000
0001
0000
0010
0000
0100
0000
,
1000
0100
0001
0100
0010
1000
0100
0001
,
0100
0010
0100
1000
0001
0100
1000
0000
0100
0000
0010
0000
1000
0000
0100
0000
,
0010
0010
0001
0100
1000
0001
0200
0000
,
0000
0300
0000
0000
0000
0000
1001
0100
,
0001
0100
0001
0100
0001
0100
1000
0010
,
1000
0010
1000
0010
0001
0100
1000
0100
,
1000
0100
1000
0100
1000
0100
0001
0010
,
0001
0010
0001
0010
0001
0010
1000
0100
,
0001
0100
1000
0100
0001
0010
1000
0010
,
0001
0010
1000
0010
0001
0100
1000
0100
,
0010
0001
1000
0100
0010
0001
0001
0010
,
0100
1000
0001
0010
0100
1000
0100
0000
,
0001
0000
0000
0000
0010
0000
0000
0000
1000
0000
0000
0000
0110
0000
1000
0100
,
1000
0000
0010
0001
0100
0000
1000
0001
0010
0100
0001
1000
0100
0000
0010
0001
,
0010
0000
0100
1000
0100
0000
0010
0001
0100
0010
1000
0100
0001
0000
1000
0100
,
1000
0000
0010
0001
0010
0000
0100
0010
0001
0100
1000
0010
0002
0000
0000
0000
,
0003
0000
0100
0001
0100
0000
1000
0000
0100
0000
0010
0000
2000
0000
3000
0000
,
0010
0001
0100
0001
1000
0000
0100
0000
0010
0000
1000
0000
0010
0000
0100
0000
,
1000
0010
0001
0100
1000
0000
0010
0000
0001
0000
0100
0000
1000
0100
0010
0001
,
1000
0100
0010
0001
0001
0010
0100
1000
0001
0010
0100
1000
0001
0000
1000
0000
,
0010
0100
0000
2002
0000
3003
0110
1000
,
0100
1001
0100
0001
0100
0001
0010
1000
,
0001
0010
0100
1000
0100
0010
1001
0100
,
0010
0110
1000
0010
0001
1000
0100
0010
,
0001
0000
0010
0000
0100
0000
1000
0000
0100
0000
1000
0000
0001
0100
0010
0000
,
1000
0000
0010
0000
0000
0000
0010
0000
0100
0000
1000
0000
0001
0100
0010
0000
,
0100
0000
0000
1000
0000
0000
0000
0000
0000
0010
0000
0000
1000
0000
0000
0001
0000
0000
1000
0000
0100
0000
0010
0000
,
1000
0001
0100
0010
1000
0100
0001
0010
0100
1001
0000
0000
,
0110
1001
0110
1000
,
1000
0001
0001
0100
,
0100
0000
0010
0000
0010
0000
2000
3000
,
0100
0001
0010
0000
1000
0000
0001
0000
0100
0000
1000
0000
0002
0000
0003
0000
,
1000
0100
1000
0000
0010
0000
0001
0000
1000
0000
0100
0000
0020
0000
0030
0000
,
1000
0010
0100
0000
0001
0000
0010
0000
1000
0000
0010
0000
0001
0000
0010
0000
,
0100
1000
0100
0001
0010
1000
0022
0033
,
0100
0010
0001
0000
1000
0000
0100
0000
0010
0000
0001
0000
2200
0000
3300
0000
,
0001
0010
0001
0000
0100
0000
1000
0000
0010
0000
0100
0000
2002
0000
3003
0000
,
0100
0010
0100
0000
1000
0000
0001
0000
0010
0000
0100
0000
0001
0000
1000
0100
,
1000
0000
0001
0000
0100
0000
0001
0010
0001
0000
0100
0000
1001
0000
0100
0010
,
0100
0000
1000
0001
1000
0000
0001
1000
0001
0000
0010
0100
0010
0000
1000
0100
,
0001
0000
0001
0010
1000
0000
1000
0100
0001
0010
0100
1000
1001
0000
0100
0000
,
1010
0010
0101
0001
1010
1000
0101
0010
,
1001
0100
0110
0010
1001
0100
0020
0030
,
1000
0100
0001
0010
0100
1000
0001
0100
,
0010
1000
0100
0001
0010
0100
1000
0001
,
0010
0100
0001
1000
0100
0010
2000
0001
,
3001
0000
0010
1000
0001
0000
0100
0000
0010
0000
0001
0000
0010
0000
0100
0001
,
1000
0000
1000
0100
0010
0000
0100
0001
0010
0000
0100
1000
0010
0001
0100
0010
,
1000
0100
0010
0001
0010
0100
1000
0001
0010
0100
1000
0000
0001
0000
0100
0000
,
0010
0100
0010
0100
0010
1000
0100
0001
,
0010
0000
1000
0100
0010
0000
0001
0000
0010
0000
1000
0000
0002
0000
1000
0000
,
1000
1000
1000
1000
1000
1003
2000
0001
,
0001
0001
0001
0001
0001
3001
0020
0100
,
0100
0100
0100
0100
0100
0130
0001
1000
,
0001
1000
0001
1000
0001
1000
0100
0100
,
0100
0100
0100
0100
0100
0100
0100
0100
,
0200
0000
0000
0000
,
0300
0000
0000
0000
;
