#TITLE:07. Lobby;
#SUBTITLE:- Forte Escape;
#ARTIST:S4 League;
#TITLETRANSLIT:;
#SUBTITLETRANSLIT:;
#ARTISTTRANSLIT:;
#CREDIT:;
#BANNER:;
#BACKGROUND:;
#LYRICSPATH:;
#CDTITLE:;
#MUSIC:07. Lobby - Forte Escape.mp3;
#OFFSET:0.000;
#SAMPLESTART:2.340;
#SAMPLELENGTH:12.000;
#SELECTABLE:YES;
#BPMS:0.000=131.000;
#STOPS:;
#BGCHANGES:;

//---------------dance-single - ----------------
#NOTES:
     dance-single:
     :
     Beginner:
     2:
     0.135,0.132,0.000,0.000,0.000:
0000
0000
0000
0000
,
0000
1000
0000
1000
,
0000
1000
0000
1000
,
0000
0001
0000
0001
,
0000
0001
0000
0001
,
0000
0100
0000
0000
0010
0000
0000
0000
,
1000
0000
0010
0000
,
0100
0000
1000
0000
,
0001
0000
0100
0000
,
0010
0000
0001
0000
,
0010
0000
1000
0000
,
0100
0000
0001
0000
,
0010
0000
0001
0000
,
0100
0000
1000
0000
,
0100
0000
0001
0000
,
0010
0000
1000
0000
,
0100
0000
0001
0000
,
0010
0000
1000
0000
,
0010
0000
0001
0000
,
0100
0000
1000
0000
,
0100
0000
0001
0000
,
0100
0000
0000
0000
,
0100
0000
0000
0000
,
0010
0000
0000
0000
,
0010
0000
0000
0000
,
1000
0000
0000
0000
,
0001
0000
0000
0000
,
1000
0000
0000
0000
,
0001
0000
0000
0000
,
0100
0000
0100
0000
,
0100
0000
0100
0000
,
0010
0000
0010
0000
,
0010
0000
0010
0000
,
1000
0000
0100
0000
,
0010
0000
0001
0000
,
1000
0000
0100
0000
,
0010
0000
0001
0000
,
0001
0000
0010
0000
,
0100
0000
1000
0000
,
0001
0000
0100
0000
,
0010
0000
1000
0000
,
1000
0000
0010
0000
,
0100
0000
0001
0000
,
0100
0000
0010
0000
,
0100
0000
1000
0000
,
0001
0000
0000
0000
,
0001
0000
0000
0000
,
1000
0000
0000
0000
,
1000
0000
0000
0000
,
0100
0000
0000
0000
,
0100
0000
0000
0000
,
0010
0000
0000
0000
,
0100
0000
0100
0000
,
0001
0000
0010
0000
,
1000
0000
0100
0000
,
0001
0000
1000
0000
,
0010
0000
0100
0000
,
0001
0000
0010
0000
,
1000
0000
0100
0000
,
0001
0000
0010
0000
,
0100
0000
1000
0000
,
0100
0000
0100
0000
,
0100
0000
0010
0000
,
0100
0000
1000
0000
,
1000
0000
0001
0000
,
0001
0000
0100
0000
,
0010
0000
0100
0000
,
1000
0000
0010
0000
,
0100
0000
0010
0010
,
0000
0010
0000
0000
0000
0000
0000
0000
;

//---------------dance-single - ----------------
#NOTES:
     dance-single:
     :
     Easy:
     4:
     0.381,0.453,0.123,0.567,0.000:
0000
0000
0000
0000
,
0000
0200
0010
2300
,
0001
3020
0100
2030
,
0001
3020
0100
2030
,
0001
3200
0010
2300
,
3000
0011
0000
0000
1000
0000
0010
0000
,
0100
0001
0010
0100
,
1100
0000
1000
0100
,
0001
1000
0010
0100
,
0001
0010
0100
0010
,
0001
1000
0010
0100
,
2000
0100
0010
3100
,
0002
0010
0100
0013
,
0200
0000
0320
0000
,
2030
0000
3002
0000
,
0203
2300
3200
0320
,
0032
0203
0320
2030
,
3100
0010
1000
0010
,
0001
0010
1000
0001
,
0100
1000
0100
0010
,
0100
0001
0010
0100
,
0020
0000
0100
0030
,
0200
0000
0010
0300
,
2000
0000
0100
3000
,
0002
0000
0100
0003
,
0020
0230
0320
0230
,
2300
3002
2003
3002
,
0103
1000
0100
0010
,
0001
0010
0001
1000
,
0000
0110
0000
0000
0100
0000
0001
0000
,
1000
0010
0100
0001
,
0010
0100
0010
0001
,
1000
1000
1000
1000
,
0010
0001
0100
0010
,
1000
0001
0001
0001
,
0001
0100
0001
0010
,
1000
1000
0010
0100
,
1001
0100
0100
0100
,
1001
0100
0100
0100
,
1001
0010
0010
0010
,
1001
0010
0010
0010
,
1100
0100
0100
0100
,
0101
0100
0100
0100
,
1000
0010
0001
0100
,
0001
0010
1000
0100
,
0020
0100
0100
0130
,
0020
0100
0100
0130
,
2000
3002
0023
0230
,
2300
3020
0230
0302
,
0203
0320
0230
0320
,
2030
3002
2003
3002
,
0203
0320
2030
3002
,
0103
0010
0000
0100
0010
0000
0010
0000
,
0020
1030
1000
1000
,
0200
0301
0001
0001
,
2000
3010
0010
0010
,
0002
0103
0100
0100
,
2000
3100
0010
0001
,
0200
0310
0001
1000
,
0020
0031
1000
0100
,
0002
1003
0100
0010
,
1100
0100
0100
0100
,
0101
0100
0100
0100
,
1010
0100
0010
0100
,
0011
0100
0010
0100
,
0110
1000
0001
1000
,
1001
0010
0100
0010
,
2000
3020
0230
0302
,
0023
0032
0203
2300
,
3000
0220
0000
0000
0330
0000
0000
0000
;

//---------------dance-single - ----------------
#NOTES:
     dance-single:
     :
     Medium:
     7:
     0.441,0.537,0.284,0.238,0.000:
0000
0000
0000
0000
,
0000
0000
0100
0010
0000
0000
0100
0010
,
0000
0000
0100
0010
0000
0000
0100
0010
,
0000
0000
0010
0100
0000
0000
0010
0100
,
0000
0000
0010
0100
0000
0000
0010
0100
,
0000
1100
0000
0100
0010
0000
0001
0000
,
0100
0000
0010
0000
1000
0010
0100
1000
,
0000
0011
0000
0100
1000
0000
0001
0000
,
0100
0000
0010
0000
1000
0001
0100
0010
,
0000
0100
0010
0000
0100
0010
0100
0000
,
0010
0100
0000
0000
0010
0100
0010
0100
,
0000
1000
0100
0000
0000
0001
0100
0000
,
0000
0010
1000
0000
0000
0100
0001
0000
,
0010
1000
0100
0000
0010
0100
0001
0000
,
0010
1000
0100
0000
0001
0010
0100
0000
,
0010
1000
0100
0000
0010
0001
0100
0000
,
0000
0100
0010
0100
0000
0100
0010
0100
,
0000
1100
0000
0000
1000
0000
0010
0000
,
0100
0000
0001
0000
0010
0100
1000
0001
,
0000
0101
0000
0000
1000
0000
0010
0000
,
0100
0000
0001
0000
0001
0100
0010
1000
,
0000
0120
0000
0000
0100
1000
0000
0030
,
0200
0000
0010
0000
0010
0001
0300
0001
,
1000
0010
0000
0100
1000
0010
0100
0000
,
0010
1000
0100
0000
0010
0001
0100
0000
,
0000
0001
0000
1000
0000
0100
0000
0010
,
0000
0100
0000
1000
0000
0001
0000
0100
,
0000
2000
0000
3020
0000
0230
0000
0301
,
0000
0110
0000
0000
0010
0100
0010
0100
,
0000
1100
0000
0100
0001
0000
1000
0010
,
0100
0000
0010
0001
0100
0000
0010
1000
,
0100
0000
0010
0100
0001
0000
0010
1000
,
0100
0000
0010
1000
0100
0000
0010
0001
,
0100
1001
0000
1001
0000
1001
0000
1001
,
0000
1100
0000
0101
0000
1100
0000
0101
,
0000
1000
0010
0000
0001
0000
0100
0000
,
0010
0001
0100
0000
0010
0100
0001
0100
,
0000
1100
0000
0200
0000
0320
0000
0032
,
0000
0203
0000
0320
0000
2030
0000
3200
,
0000
0302
0000
0023
0000
2030
0000
3200
,
0000
2300
0000
3020
0000
0032
0000
0203
,
0000
1300
0010
0000
0000
1000
0010
0000
,
0000
1000
0010
0000
0000
0001
0010
0001
,
0000
0100
0010
0000
0000
1000
0010
0000
,
0000
0001
0010
0000
0000
0100
0010
0100
,
0000
0110
0000
0010
0000
0010
0000
0010
,
0000
0100
0000
0010
0000
0010
0000
0010
,
0000
1001
0000
0100
0000
0010
0000
0100
,
0000
1001
0000
0010
0000
0100
0000
0010
,
0000
1100
0000
0100
0000
0010
0000
0001
,
0000
0101
0000
0010
0000
0100
0000
1000
,
0000
0110
0000
1001
0000
0010
0000
0100
,
0000
0010
2000
3200
0302
0023
0230
2300
,
3000
0110
0000
1100
0000
0100
0010
0100
,
0000
0110
0000
0101
0000
0100
0010
0100
,
0000
1100
0000
1010
0000
0101
0000
0011
,
0000
1001
0000
0110
0000
0100
0010
0100
,
0000
1000
0100
1000
0000
0001
0100
0001
,
0000
0010
1000
0100
0000
0010
0001
0100
,
0000
0010
1000
0100
0000
0010
0001
0100
,
0000
1000
0100
0010
0000
0001
0010
0100
,
0000
1002
0000
0100
0000
1000
0003
0100
,
0000
2001
0000
0010
0000
0001
3000
0010
,
0000
0210
0000
1000
0000
0001
0300
1000
,
0000
0120
0000
0001
0000
1000
0030
0001
,
0000
0100
1000
0100
0000
0010
0001
0010
,
0000
1000
0001
0100
0000
0010
1000
0001
,
0000
0100
1000
0100
1000
0100
0001
0100
,
0001
0010
1000
0010
1000
0010
0001
0010
,
0001
0010
0200
0000
0000
0000
0000
0000
,
0300
0000
0000
0000
;

//---------------dance-single - ----------------
#NOTES:
     dance-single:
     :
     Hard:
     10:
     0.726,0.747,0.514,0.299,0.437: // measure 1
0000
0000
0000
0000
,  // measure 2
0000
0000
0000
0000
0100
0000
0010
0000
0000
0010
0001
0000
0010
0000
0100
0000
,  // measure 3
0000
0100
1000
0000
0010
0000
0001
0000
0000
0100
1000
0000
0010
0000
0100
0000
,  // measure 4
1000
0000
0010
0000
0100
0000
0010
0000
0000
0001
1000
0000
0100
0000
0010
0000
,  // measure 5
0000
0100
0010
0000
0001
0000
0100
0000
0000
1000
0010
0000
0001
0010
0100
0010
,  // measure 6
0001
1000
0100
0000
0110
0000
0001
0000
0100
0000
1000
0000
0010
0000
1000
0000
,  // measure 7
0100
0001
0010
0100
0001
0010
0100
2000
,  // measure 8
3000
0010
0100
0001
0100
1000
0100
0010
,  // measure 9
0100
1000
0100
0001
0010
0100
0010
0002
,  // measure 10
0003
0000
0100
0010
0100
0000
1000
0100
1000
0000
0001
0010
0001
0000
0010
0100
,  // measure 11
0010
0000
1000
0100
0010
0000
0100
0010
0001
0000
0010
0000
0100
0000
0020
0000
,  // measure 12
0030
0000
0100
0000
1000
0000
0100
0000
1000
0100
0010
0000
0010
0000
0000
0100
,  // measure 13
0010
0001
0100
0010
1000
0100
0001
0010
,  // measure 14
0100
0000
0000
1000
0100
0000
0010
0000
0100
0000
0001
0010
0100
0000
0100
0000
,  // measure 15
1000
0000
0100
0010
0001
0000
0000
0010
0100
0000
1000
0000
0010
0000
0200
0000
,  // measure 16
0300
0000
1000
0100
0000
0000
0010
0000
0100
0001
0010
0000
0100
0000
1000
0010
,  // measure 17
0100
0000
0001
0000
1000
0000
0010
0000
0100
1000
0100
0000
0010
0000
0200
0000
,  // measure 18
0300
2000
3001
0010
1000
0000
0001
0100
0010
0000
0001
1000
0100
0000
0001
0010
,  // measure 19
1000
0000
1000
0010
0100
0000
1000
0100
0001
0000
1000
0001
0010
0000
1000
0010
,  // measure 20
0100
2000
0010
3002
0100
0023
1000
0230
,  // measure 21
0001
0320
1000
0130
0010
0100
0010
1000
,  // measure 22
0100
0021
0000
0000
0100
1000
0030
0000
,  // measure 23
1000
0100
1000
0000
1000
0000
0100
0000
0100
0000
0011
0000
0100
0000
1000
0000
,  // measure 24
0011
0000
1100
0000
0001
0000
0100
0010
0100
0000
0110
0000
1000
0000
0000
0000
,  // measure 25
0100
1000
0100
0000
0001
0000
0000
0000
0010
0100
1000
0000
1000
0000
0100
0000
,  // measure 26
0010
0000
1001
0000
1001
0000
0000
0010
0100
1000
0100
0001
0000
0000
0000
0100
,  // measure 27
1000
0010
0100
0001
0000
0000
0000
0010
0100
1000
0001
0000
0010
0000
0200
0000
,  // measure 28
0300
1000
0010
0000
0001
0000
0000
0010
0100
0010
0001
1000
0000
0000
0000
1000
,  // measure 29
0100
0010
0001
0100
0000
0000
0000
0001
0010
0100
1000
0001
0010
0001
0010
0001
,  // measure 30
0110
1100
0100
1100
0100
1100
0100
1100
,  // measure 31
0100
0101
0100
0101
0100
0101
0100
0101
,  // measure 32
0010
1100
0010
0101
0100
0011
0100
1010
,  // measure 33
0100
0000
0000
1001
0000
0000
1000
0000
0000
0110
0000
0000
0001
0000
0000
1001
0000
0000
0000
0100
1000
0010
0100
0001
,  // measure 34
0000
1000
0000
0000
0000
0000
0010
0000
0000
1000
0000
0000
0100
0000
0000
0001
0000
0000
0010
0000
0000
0100
0000
0000
,  // measure 35
0010
0001
1000
0100
0010
0100
0001
0100
,  // measure 36
1000
0110
0001
0100
0010
0001
0100
1000
,  // measure 37
0010
0000
0110
0000
0100
0000
0010
0000
1000
0000
0100
0000
0001
0000
0010
0100
,  // measure 38
0010
0100
2000
0000
0200
0000
3002
0000
0300
0000
0023
0000
0000
0000
2030
0000
,  // measure 39
0000
3002
0000
0203
0000
0310
1000
0001
,  // measure 40
0000
0210
0001
1000
0001
1000
0010
1000
,  // measure 41
0300
0120
1000
0001
1000
0001
0100
0001
,  // measure 42
0030
0000
0100
1000
0100
0000
0100
0001
0100
0000
0010
0100
1000
0000
0100
0010
,  // measure 43
0001
0000
1000
0100
0001
0100
0010
0100
0002
0000
2003
0000
3002
0000
2003
0000
,  // measure 44
3000
0010
0100
0010
0000
1000
0001
1000
0000
0001
0010
0001
0000
0100
1000
0100
,  // measure 45
0010
1000
0100
0000
0001
0010
0100
0000
0010
0001
1000
0000
0100
0010
0100
0000
,  // measure 46
0000
2002
0000
0000
3003
0000
1001
0000
0000
0000
1001
0000
0000
0000
1001
0000
,  // measure 47
0000
1100
0000
1001
0000
1001
0000
1001
,  // measure 48
0000
0101
0000
1001
0000
1001
0000
1001
,  // measure 49
0010
0110
0100
1001
0010
0110
0100
1001
,  // measure 50
0000
0000
1000
0100
0000
0000
0100
0010
0000
0000
0010
0001
0000
0000
0001
1000
,  // measure 51
0000
0000
0001
0010
0000
0000
0010
0100
0000
0000
0100
1000
0000
0000
1000
0001
,  // measure 52
0000
0210
0000
1000
0000
0001
0000
1000
,  // measure 53
0300
0011
0100
1010
0100
0101
0010
1100
,  // measure 54
0010
1002
0000
0010
0000
0100
0000
1000
,  // measure 55
0003
2001
0000
0100
0000
0010
0000
0001
,  // measure 56
3000
0210
0000
1000
0000
0001
0000
1000
,  // measure 57
0300
0120
0000
0001
0000
1000
0000
0001
,  // measure 58
0030
1100
0100
1001
0100
1001
0000
1001
,  // measure 59
0000
0101
0100
1001
0100
1001
0000
1001
,  // measure 60
0000
1000
0001
0100
0010
0100
0100
0100
,  // measure 61
0000
0000
0010
0000
1000
0000
0001
0000
0100
0001
0100
0010
0100
1000
0100
0000
,  // measure 62
0010
1000
0100
0000
1000
0001
0010
0000
0001
0010
1000
0000
0100
0000
0000
0000
,  // measure 63
0001
0100
1000
0000
0010
0000
0000
0100
0010
0000
1000
0000
0001
0000
0100
0010
,  // measure 64
0100
2000
0000
3002
0000
0203
0000
0320
,  // measure 65
0000
0000
1030
0100
0001
0000
0010
0100
1000
0000
0010
0001
0100
0000
1000
0010
,  // measure 66
0100
1100
0010
0100
0001
0101
1000
0010
,  // measure 67
0100
1001
0010
0101
0000
0110
1000
0001
,  // measure 68
0100
1000
0001
0100
0010
1000
0100
0010
,  // measure 69
0100
0000
0001
1000
0010
0100
0001
0010
0100
1000
0100
0010
0100
1000
0001
0100
,  // measure 70
0010
1000
2002
0000
0000
0000
0000
0000
0000
0000
3003
0000
0000
0000
0000
0000
;
