#TITLE:Konya Mo Nerenai;
#SUBTITLE:Byioteka Imi De;
#ARTIST:Golden Bomber;
#TITLETRANSLIT:;
#SUBTITLETRANSLIT:;
#ARTISTTRANSLIT:;
#CREDIT:;
#BANNER:;
#BACKGROUND:;
#LYRICSPATH:;
#CDTITLE:;
#MUSIC:10 - Konya mo Nerenai (Byoteki na Imi de).mp3;
#OFFSET:0.000;
#SAMPLESTART:152.790;
#SAMPLELENGTH:12.000;
#SELECTABLE:YES;
#BPMS:0.000=161.060;
#STOPS:;
#BGCHANGES:;

//---------------dance-single - ----------------
#NOTES:
     dance-single:
     :
     Challenge:
     15:
     0.818,0.881,0.549,0.134,0.796: // measure 1
0000
0000
0000
0000
,  // measure 2
1000
0100
0001
1000
0010
0100
1000
0001
,  // measure 3
0100
0020
0000
0000
0000
0000
0000
0000
,  // measure 4
0100
0000
0100
0000
0200
0000
0000
0330
,  // measure 5
1000
0001
0100
0000
0010
0000
1000
0000
0100
0000
1000
0000
0100
0000
0010
0000
,  // measure 6
0100
0001
0100
1000
0010
0100
0010
0001
,  // measure 7
0010
1000
0100
1000
0100
1000
0010
0100
,  // measure 8
0010
1000
0100
0001
0010
1000
0100
1000
,  // measure 9
0001
0100
1000
0010
1000
0100
0000
1000
,  // measure 10
0010
0000
0100
0000
1000
0000
0010
0000
0001
0000
0100
0000
1000
0000
0000
0001
,  // measure 11
0010
1000
0000
0100
0001
0010
0000
1000
0010
0100
0000
0001
0010
0000
0000
0000
,  // measure 12
0100
0010
0000
0000
0001
0100
0000
0000
0010
1000
0000
0000
1000
0100
0000
0000
,  // measure 13
0110
1100
0101
0110
,  // measure 14
1000
0100
1000
0001
0100
0010
1000
0100
,  // measure 15
0101
1100
0110
1001
,  // measure 16
0100
0000
1000
0100
0001
0000
0010
0000
0100
0000
0000
0000
1000
0000
0000
0000
,  // measure 17
0110
0000
0000
0001
0100
0000
0000
1000
0100
0000
0000
0010
0100
0000
0000
1000
,  // measure 18
0100
0000
0001
0000
0010
0100
0000
0000
1000
0100
0000
0000
2001
0100
0000
0000
,  // measure 19
0010
0000
0100
0001
3010
0001
0100
1000
,  // measure 20
0110
0000
1100
0000
0110
0000
0011
0000
0110
0000
0000
1000
0100
0000
0001
0000
,  // measure 21
0200
0000
1300
0100
0001
0010
2000
0000
,  // measure 22
3002
0000
0000
0003
0200
0000
0300
0000
,  // measure 23
1000
0000
0010
0000
0001
0000
0100
0000
1000
0000
0010
0000
,  // measure 24
0100
0000
0000
0000
0000
0000
0000
0000
1000
0000
0000
0000
0000
0000
0000
0000
0002
0000
0000
0000
0000
0000
0000
0000
0000
0000
0000
0000
0000
0000
0000
0000
0003
0000
0000
0000
0000
0000
0000
0000
0000
0000
1000
0000
0000
0100
0000
0000
,  // measure 25
1000
0100
1000
0100
1000
0100
1000
0100
1000
0000
0000
0000
0000
0000
0001
0100
,  // measure 26
0001
0100
0001
0100
0001
0100
0001
0100
0001
0000
0000
0000
0000
0000
0100
0010
,  // measure 27
0100
0010
0100
0010
0100
0010
0100
0010
0100
0000
0100
0000
0010
0000
1100
0000
,  // measure 28
0000
0000
0100
0000
0000
1000
0101
0000
0000
0000
0100
0000
0000
0010
1010
0000
,  // measure 29
0000
0000
0100
0000
0000
0010
0022
0000
0000
0000
0000
0033
0000
0000
0100
1000
,  // measure 30
0010
0000
0001
0000
0000
0000
0100
0010
0001
0000
1000
0000
0000
0000
0100
0010
,  // measure 31
1000
0000
0100
0000
0001
0000
0010
0000
1000
0000
0100
0000
0001
0000
1000
0010
,  // measure 32
0100
0000
0010
0000
0000
0000
0100
1000
0001
0000
0100
0000
0000
0000
0010
1000
,  // measure 33
0001
0000
0100
0000
0010
0000
1000
0000
0001
0000
0100
0000
0010
0000
1000
0010
,  // measure 34
0001
0000
0100
0000
0000
0000
1000
0010
0100
0000
0001
0000
1000
0000
0010
0000
,  // measure 35
0100
0000
1000
0000
0001
0000
0010
0000
0001
0000
0100
0000
1000
0000
0001
0100
,  // measure 36
0010
0000
1000
0000
0000
0000
0100
0010
1000
0000
0001
0000
0000
0000
0100
1000
,  // measure 37
0000
0001
0000
0100
0000
0010
0000
1000
0000
0100
0000
0001
0000
0010
0100
1000
,  // measure 38
0001
0100
1000
0010
0001
0100
1000
0010
,  // measure 39
0100
0001
1000
0100
0010
1000
0100
0001
,  // measure 40
0010
1000
0010
0100
1000
0001
0100
0010
,  // measure 41
1000
0001
0100
0010
1000
0001
0100
0010
,  // measure 42
1001
0010
0100
0010
0001
0010
1000
0100
,  // measure 43
0001
0010
1000
0010
0001
0010
0100
1000
,  // measure 44
0000
0100
0000
0001
0000
1000
0000
0010
0000
0110
0000
0001
0000
1000
0000
0100
,  // measure 45
0000
0110
0000
1000
0000
0001
0000
0010
0000
0110
0000
1000
0010
0001
0000
0010
,  // measure 46
1000
0100
0000
0010
1000
0001
0000
0010
0100
0001
0000
0010
1000
0100
0000
0001
,  // measure 47
0100
1000
0000
0100
0010
0001
0000
0010
1000
0001
0000
0100
1000
0010
0000
0100
,  // measure 48
1000
0001
0000
0010
0100
1000
0000
0010
0100
1000
0000
0100
0010
0001
0000
0100
,  // measure 49
0010
0001
0000
0001
1000
0001
0000
0001
1000
0001
0000
1000
0001
1000
0000
1000
,  // measure 50
0001
1000
0000
0010
0100
1000
0000
0100
0010
0001
0000
0010
0100
1000
0000
0100
,  // measure 51
0001
0010
0000
1000
0001
0100
0000
1000
0010
0100
0000
0010
1000
0100
0000
0001
,  // measure 52
0100
0010
0000
1000
0000
0100
0000
0001
0000
0010
0000
1000
0000
0000
0100
0000
,  // measure 53
0001
0000
1000
0000
0010
0000
0100
0001
1000
0100
0010
0000
1100
0000
0000
0000
,  // measure 54
0110
0101
0110
1010
,  // measure 55
0011
0000
0000
1001
0000
0000
0110
0000
0000
1000
0000
0100
,  // measure 56
0000
0010
0000
1000
0000
0100
0000
0001
0000
0010
0000
0001
,  // measure 57
0000
0000
0000
0000
0100
0000
0000
0000
0000
0000
0000
0000
2000
0000
0000
0000
0000
0000
0000
0000
0000
0000
0000
0000
3000
0000
0000
0000
0000
0000
0000
0000
0000
0000
0000
0000
1000
0000
0000
0100
0000
0000
0010
0000
0000
1000
0000
0000
,  // measure 58
0100
0010
1000
0100
0010
1000
0100
0010
1000
0000
0000
0000
0001
0100
0010
0001
,  // measure 59
0100
0010
0001
0100
0010
0001
0100
0010
0001
0000
0000
0000
0010
1000
0001
0010
,  // measure 60
1000
0001
0010
1000
0001
0100
0010
1000
0001
0000
0000
0000
0110
0000
0000
0000
,  // measure 61
0010
0100
2000
0000
0000
0000
0000
3000
0100
0010
0002
0000
0000
0000
0000
0003
,  // measure 62
0010
0100
0020
0000
0000
0000
0000
0030
0000
0000
0000
0000
1000
0010
0001
0000
,  // measure 63
0100
0000
1000
0000
0100
0010
1000
0000
0001
0000
0010
0000
1000
0100
0010
0000
,  // measure 64
0001
0000
0100
0000
0010
0001
1000
0000
0010
0000
0100
0000
1000
0010
0100
0000
,  // measure 65
0001
0000
0010
0000
0100
0010
0001
0000
1000
0000
0010
0000
0100
1000
0010
0000
,  // measure 66
0001
0000
0100
0000
1000
0010
0100
0000
0001
0000
0010
0000
1000
0100
0010
0000
,  // measure 67
1000
0000
0100
0000
0001
0010
0001
0000
0100
0000
0010
0000
0100
1000
0001
0000
,  // measure 68
0010
0000
0100
0000
0001
0100
0010
0000
1000
0000
0010
0000
0100
0001
1000
0000
,  // measure 69
0010
0000
0100
0000
0001
1000
0010
0000
0100
0000
1000
0010
0100
0000
0010
0000
,  // measure 70
1000
0001
0010
0100
1000
0100
0001
0000
,  // measure 71
0000
1100
0000
1100
0000
1100
0000
0000
0000
0101
0000
0101
0000
0101
0000
0000
,  // measure 72
0000
1001
0000
1001
0000
1001
0000
0220
0000
0000
0000
0330
0000
0110
0000
0000
,  // measure 73
0000
1100
0000
0110
0000
0011
0000
0000
0000
1010
0000
1100
0000
1010
0000
0000
,  // measure 74
0000
0101
0000
0011
0000
0101
0000
2002
0000
3003
0000
0110
0000
0000
0000
0000
,  // measure 75
0000
0110
0000
1100
0000
0101
0000
0000
0000
1010
0000
0011
0000
1001
0000
0000
,  // measure 76
0000
1010
0000
0011
0000
0101
0000
2200
0000
3300
0000
0110
0000
0000
0000
0000
,  // measure 77
0000
0011
0000
0110
0000
1100
0000
0000
0000
0110
0000
1100
0000
0101
0000
0000
,  // measure 78
0000
1010
0000
1100
0000
0101
0000
0022
0000
0033
0000
0000
1001
0000
1000
0000
,  // measure 79
0001
0100
0010
1000
0010
0100
0001
0100
,  // measure 80
0010
1000
0100
0001
0010
0100
0010
1000
,  // measure 81
0100
0001
0010
0100
1000
0001
0100
0010
,  // measure 82
1000
0100
0010
0001
0100
0010
1000
0001
,  // measure 83
0100
0010
1000
0100
0001
0010
0100
0010
,  // measure 84
0010
0010
0010
0010
0010
0010
0010
0010
,  // measure 85
0010
0010
0010
0010
,  // measure 86
0010
0010
0000
0000
,  // measure 87
0000
0000
0000
1000
0000
0000
0000
0100
,  // measure 88
0000
0000
0000
0001
0000
0000
0000
0100
,  // measure 89
0000
0000
0000
0110
0000
0000
0000
1000
,  // measure 90
0000
0001
0000
0100
0000
1000
0000
0001
,  // measure 91
0000
0100
0000
1000
0100
0001
0010
1000
,  // measure 92
0100
0000
0000
0010
0000
0000
1000
0000
0000
0100
0000
0000
0001
0000
0100
0000
1000
0000
0010
0000
0100
0000
0001
0000
,  // measure 93
1001
0000
0000
0000
1000
0001
0100
0010
,  // measure 94
1000
0001
0100
0010
1000
0010
0100
1000
,  // measure 95
0001
0000
0000
0100
0000
0000
0010
0000
0000
1000
0000
0000
0100
0000
0000
0000
0001
0000
0000
0000
1000
0000
0000
0000
,  // measure 96
0100
0000
0001
0000
1000
0000
0010
0000
0100
0000
1000
0000
,  // measure 97
0002
0000
0000
0000
0003
0000
0000
0000
1000
0001
1000
0001
1000
0001
1000
0001
,  // measure 98
1000
0000
0000
0000
0000
0000
0000
0000
0001
1000
0001
1000
0001
1000
0001
1000
,  // measure 99
0001
0000
0000
0000
0000
0000
0000
0000
0010
0100
0010
0100
0010
0100
0010
0100
,  // measure 100
0010
0000
0000
1000
0000
0000
0000
1001
0000
0000
0000
0000
0000
0000
1001
0000
,  // measure 101
0000
0000
1001
0000
,  // measure 102
2002
0000
3003
0200
,  // measure 103
0320
0000
0000
0000
0000
0000
0000
0000
1030
0001
0010
0000
1000
0000
0001
0000
,  // measure 104
0010
0100
0001
0000
1000
0000
0010
0000
0100
1000
0001
0000
0100
0000
0010
0000
,  // measure 105
0010
0001
0100
0000
0010
0000
1000
0000
0100
0010
1000
0000
0001
0000
0100
0000
,  // measure 106
0010
1000
0001
0000
0100
0000
0010
0000
1000
0001
0100
0000
0010
0000
1000
0000
,  // measure 107
0100
0010
1000
0000
0001
0000
0100
0000
1000
0010
0100
0000
0001
0000
0100
0000
,  // measure 108
1000
0010
0100
0000
0001
0000
0010
0000
0001
0100
0010
0000
1000
0000
0100
0000
,  // measure 109
1000
0001
0100
0000
0010
0000
0100
0000
1000
0010
0100
0000
0001
0000
0100
0000
,  // measure 110
0010
0000
1000
0100
0001
0000
0010
1000
0100
0000
0001
0000
0100
0000
1000
0000
,  // measure 111
0010
0100
0100
0100
1001
0100
1001
0010
,  // measure 112
1001
0010
1001
0100
1100
0100
0101
0010
,  // measure 113
0011
0010
1010
0100
0011
0100
1100
0100
,  // measure 114
0101
0010
1010
0010
1100
0100
1010
0010
,  // measure 115
0011
0010
0101
0100
1000
0001
0100
0010
,  // measure 116
1000
0100
0001
0100
0010
1000
0100
0010
,  // measure 117
1000
0001
0100
0010
1000
0001
0000
0000
,  // measure 118
0100
1000
0001
1000
0010
0000
0100
0000
1000
0000
0001
0000
0100
0000
0010
0000
,  // measure 119
1000
0000
0100
0000
0001
0000
0010
0100
1000
0100
0000
0010
1000
0001
0000
0010
,  // measure 120
0001
0100
0000
0010
1000
0100
0000
1000
0001
0100
0000
0010
1000
0100
0000
0001
,  // measure 121
0100
0010
0000
1000
0100
0001
0000
1000
0010
0100
0000
0001
1000
0010
0000
0100
,  // measure 122
0001
1000
0000
0010
0100
0001
0000
1000
0010
0100
0000
0001
1000
0010
0000
1000
,  // measure 123
0001
0100
0000
0010
1000
0100
0000
0001
0100
0010
0000
1000
0001
0100
0000
0010
,  // measure 124
1000
0100
0000
0001
0100
0010
0000
1000
0010
0001
0000
1000
0010
0100
0000
0001
,  // measure 125
0100
0010
0000
1000
0010
0100
0000
1000
0001
0100
0000
0010
0001
0100
0000
0010
,  // measure 126
1000
0100
0000
0010
0000
0001
0010
1000
0100
0010
0001
0100
0010
1000
0100
0001
,  // measure 127
1000
0100
0001
0010
0100
0000
0001
0000
1000
0000
0100
0000
0010
0000
0001
0000
,  // measure 128
1000
0001
0100
0010
1000
0100
0001
1000
,  // measure 129
0010
0100
0001
0100
0010
1000
0001
0100
,  // measure 130
0010
1000
0001
0100
0010
0100
1000
0001
,  // measure 131
0100
0010
1000
1001
0100
0010
1000
0001
,  // measure 132
0100
0010
1000
0100
0010
0001
1000
0001
,  // measure 133
0100
0010
1000
0011
0100
1100
0010
0110
,  // measure 134
0010
1001
0100
1000
0001
0100
0010
1000
,  // measure 135
0001
0000
0100
0000
0010
0000
0000
1100
0000
0000
0110
0000
0000
0011
0000
0000
,  // measure 136
0110
0000
0000
1001
0000
0000
0000
1100
0000
0000
0110
0000
0000
0011
0000
0000
,  // measure 137
0110
0000
0000
1001
0000
0000
0000
1100
0000
0000
1010
0000
0000
0011
0000
0000
,  // measure 138
0101
0000
0000
0110
0001
1000
0010
0100
0001
1000
0010
0100
1000
0100
0001
0010
,  // measure 139
1000
0100
0001
0100
0020
0000
0000
0000
0000
0000
0000
0000
0000
0000
0000
0000
,  // measure 140
0000
0000
0000
0000
0030
0000
0000
0000
0000
0000
1002
0000
0000
0000
0000
0010
,  // measure 141
0000
0000
0000
0000
0100
0000
0000
0000
0000
0000
0000
1000
0000
0000
0000
0000
,  // measure 142
0000
0000
0000
0000
0000
0000
0000
0103
0000
0000
0000
0000
0000
0000
0000
0000
;
