#TITLE:Emperor's New Clothes;
#SUBTITLE:;
#ARTIST:Panic! at the Disco;
#TITLETRANSLIT:;
#SUBTITLETRANSLIT:;
#ARTISTTRANSLIT:;
#GENRE:Alt rock;
#CREDIT:;
#BANNER:Emperor's New Clothes.png;
#BACKGROUND:Emperor's New Clothes-bg.png;
#LYRICSPATH:;
#CDTITLE:;
#MUSIC:Emperor's New Clothes.mp3;
#OFFSET:3.230000;
#SAMPLESTART:121.500000;
#SAMPLELENGTH:13.714000;
#LASTBEATHINT:5.798000;
#SELECTABLE:YES;
#BPMS:0.000000=156.000000
,78.000000=189.220001
;
#STOPS:
;
#BGCHANGES:8.000=Emperor's New Clothes.mp4=1.000=1=0=1===CrossFade==,
99999=-nosongbg-=1.000=0=0=0 // don't automatically add -songbackground-
;
#KEYSOUNDS:;
#ATTACKS:;

//---------------dance-single - ----------------
#NOTES:
     dance-single:
     :
     Challenge:
     12:
     0.425791,0.581958,0.424487,0.310378,0.011411,653.000000,560.000000,93.000000,68.000000,0.000000,0.000000,0.425791,0.581958,0.424487,0.310378,0.011411,653.000000,560.000000,93.000000,68.000000,0.000000,0.000000:
// measure 0
0000
0000
0000
0000
,  // measure 1
0000
0000
0000
0000
,  // measure 2
0000
0000
0000
0000
,  // measure 3
0000
0000
0000
0000
0000
0000
0000
1000
,  // measure 4
0000
0100
0000
0002
0003
0100
1000
0000
,  // measure 5
1000
0010
0000
0001
0000
1000
0000
0000
,  // measure 6
0100
0001
0010
1000
0100
0001
1000
0000
,  // measure 7
0100
1000
0100
0001
0010
0100
1000
0100
,  // measure 8
0000
0001
0000
0020
0030
1000
0100
0000
,  // measure 9
0100
0001
0000
0010
0000
0100
0000
0000
,  // measure 10
0010
1000
0001
0010
0000
1000
0100
0001
,  // measure 11
0000
0100
0000
1000
0000
0001
0000
1020
,  // measure 12
0000
0000
0000
0001
0000
0000
0000
1000
,  // measure 13
0000
1000
0000
0000
0000
0100
0000
1000
,  // measure 14
0000
0000
0000
0031
0000
0000
0000
1000
,  // measure 15
0000
1000
0000
0000
0000
0100
0000
0001
,  // measure 16
0000
0000
0000
0010
0000
0000
0000
0100
,  // measure 17
0000
0100
0000
0000
0000
0001
0000
0100
,  // measure 18
0000
0000
0000
0001
0000
1000
0000
0000
,  // measure 19
0000
0000
0000
0000
,  // measure 20
0000
0000
0000
0000
,  // measure 21
0100
1000
0100
1000
,  // measure 22
0010
0001
0010
0001
,  // measure 23
1000
0001
1000
0001
,  // measure 24
1000
0001
0000
1000
0000
0011
0000
0000
,  // measure 25
0200
0000
2300
0000
,  // measure 26
3020
0000
0032
0000
,  // measure 27
2003
0000
0200
0000
,  // measure 28
3300
0100
0100
0100
,  // measure 29
0100
0100
0100
0100
,  // measure 30
1000
0001
1000
0001
1000
0001
1000
0000
,  // measure 31
0000
0100
0001
0010
0000
1000
0000
0100
,  // measure 32
1001
0100
1000
1010
,  // measure 33
0010
0101
0000
0010
0000
1001
0000
0000
,  // measure 34
1000
0001
1000
0001
1000
0001
1000
0000
,  // measure 35
0000
0000
0001
0010
0100
0000
1000
0000
,  // measure 36
0011
0000
0100
0000
1000
0000
0010
0100
,  // measure 37
0000
1000
0000
0001
0000
0100
0000
0000
,  // measure 38
1010
0000
0100
0000
0001
0000
0100
1000
,  // measure 39
0000
0100
0000
0010
0000
0000
0000
0000
,  // measure 40
1001
0000
0100
0000
0001
0000
0010
1000
,  // measure 41
0000
0100
0000
1000
0000
0010
0000
0000
,  // measure 42
0110
0000
0100
0000
1000
0000
0001
0010
,  // measure 43
0000
0100
0000
0002
0000
0000
0103
0000
,  // measure 44
2010
0000
3010
0000
,  // measure 45
0102
0000
0000
0000
0000
0000
0000
0000
0103
0000
0000
0000
0000
0000
0000
0001
,  // measure 46
2000
0000
3000
0100
,  // measure 47
0002
0000
2003
0000
,  // measure 48
3001
0000
0010
0000
1001
0000
0100
1000
,  // measure 49
0000
0100
0000
0001
0000
0010
0000
1000
,  // measure 50
0001
1000
0110
0001
,  // measure 51
1000
0200
0020
0330
,  // measure 52
0001
1000
0001
1000
0001
1000
0001
1000
,  // measure 53
0000
0000
0001
1000
0100
0000
0001
1000
,  // measure 54
0100
1000
0000
1000
0000
0100
0001
0100
,  // measure 55
1000
0000
1000
0001
0010
0001
0000
0100
,  // measure 56
0000
2002
0000
0000
0000
0000
3003
0000
0100
0000
0000
0000
0000
0000
0000
0000
,  // measure 57
1000
0000
0001
0000
0000
0000
0010
0000
0000
0100
0000
0000
1000
0000
0010
0000
,  // measure 58
0000
0010
0000
0000
1010
0000
0000
0010
,  // measure 59
1000
0100
0011
1000
,  // measure 60
0011
1000
1010
0001
,  // measure 61
0100
1001
0000
0010
0000
1001
0000
0000
,  // measure 62
2000
0000
3002
0000
,  // measure 63
0203
0000
0000
1000
0301
0000
0100
0000
,  // measure 64
2002
0000
3003
0000
,  // measure 65
0100
0000
0100
0000
0011
0000
1000
0100
,  // measure 66
0000
0001
0000
0000
1001
0000
0000
0000
,  // measure 67
1000
0100
0000
0100
0000
1100
0000
0000
,  // measure 68
1001
0100
0010
1001
,  // measure 69
0100
1010
0000
0100
0000
0011
0000
0000
,  // measure 70
2000
0000
3002
0000
,  // measure 71
0203
0000
0301
1000
,  // measure 72
0100
0010
0100
0010
0100
0010
0100
0010
,  // measure 73
0000
1000
0001
0100
0000
0100
0000
0100
,  // measure 74
0000
1001
0000
0010
0000
1100
0000
1000
,  // measure 75
0001
0100
0001
0100
,  // measure 76
0100
0000
1000
0000
0011
0000
0100
1000
,  // measure 77
0000
0010
0000
2002
0000
3003
0000
0000
,  // measure 78
1000
0000
0100
0000
1010
0100
0000
0001
,  // measure 79
0000
0100
0000
0101
0000
0010
0000
0000
,  // measure 80
1000
0000
0001
0000
0110
0000
0010
1000
,  // measure 81
0000
0001
0000
0220
0000
0330
0100
0100
,  // measure 82
0021
0000
0031
0000
,  // measure 83
1020
0000
0000
0000
1030
0000
0000
0100
,  // measure 84
2002
3000
0103
1000
,  // measure 85
0002
0000
2003
0000
,  // measure 86
3001
0000
0100
0000
1001
0100
0000
1000
,  // measure 87
0000
0001
0000
0110
0000
0100
0000
0100
,  // measure 88
1000
0000
0100
0000
0011
0100
0000
0100
,  // measure 89
0000
0001
0000
2000
0000
0000
3000
0000
,  // measure 90
0001
0010
0001
0010
0001
0010
0001
1000
,  // measure 91
0000
0000
1000
0100
0001
0000
0010
0100
,  // measure 92
1000
1000
0000
0001
0000
1000
0001
0100
,  // measure 93
2000
0000
3000
0000
,  // measure 94
0000
0000
0100
0001
1000
0100
0000
0100
,  // measure 95
0000
2002
0000
0000
0000
3003
0000
0000
,  // measure 96
0100
1000
0000
0100
0000
0011
0000
0100
,  // measure 97
1000
0000
0100
0000
0000
1001
0000
0000
,  // measure 98
1000
0100
0000
0001
0000
1100
0000
0100
,  // measure 99
0000
1001
0000
0100
0000
0010
0000
1001
,  // measure 100
0000
0100
1100
0000
0010
0000
0101
0000
,  // measure 101
0000
2000
0000
0000
0000
3002
0000
0000
,  // measure 102
0000
0023
0000
0000
0030
1000
0000
0100
,  // measure 103
0000
2002
0000
0000
0000
3003
0000
0000
,  // measure 104
0000
0000
0100
0000
0000
0000
0100
0000
0000
0000
1001
0000
0000
0000
0010
1000
,  // measure 105
0000
0000
0000
0100
0000
0000
0000
0000
1001
0000
0000
0000
0000
0000
0001
0000
,  // measure 106
1000
0100
1001
0100
,  // measure 107
0010
1100
0100
0101
,  // measure 108
1000
0110
0000
0001
0000
0110
0000
0000
,  // measure 109
0000
2000
0000
0000
0000
3002
0000
0000
,  // measure 110
0000
0203
0000
0000
0000
1300
0000
0001
,  // measure 111
0000
0100
0000
0100
0000
0100
0000
0100
,  // measure 112
0000
1000
0000
0001
0000
1000
0000
0001
,  // measure 113
0000
1000
0000
0100
0000
0010
0000
0001
,  // measure 114
0000
0010
0000
0100
0000
1000
0000
0000
,  // measure 115
0000
0010
0000
0010
0000
0010
0000
0010
,  // measure 116
0000
1001
0000
1000
0000
0001
0000
1000
,  // measure 117
0000
0100
0000
0010
0000
0100
0000
1000
,  // measure 118
0000
0001
0000
0100
0000
1001
0000
0000
,  // measure 119
0000
0000
0000
0000
,  // measure 120
0000
2001
0000
0000
0000
3002
0000
0000
,  // measure 121
0000
0203
0000
0000
0000
2300
0000
0000
,  // measure 122
0000
3020
0000
0000
0000
0032
0000
0000
,  // measure 123
0103
1000
0100
0010
0001
1000
0000
0100
,  // measure 124
0000
1001
0000
0100
0000
0010
0000
1001
,  // measure 125
0000
0100
1100
0000
0010
0000
0011
0000
,  // measure 126
0000
0000
0100
1000
0000
0001
0000
0001
,  // measure 127
0000
0100
1000
0001
0000
0001
0000
0100
,  // measure 128
0000
2002
0000
0000
0000
3003
0000
0000
,  // measure 129
1000
0100
0000
1000
0000
0101
0000
0010
,  // measure 130
0000
1000
0000
0100
0000
1001
0000
0100
,  // measure 131
0000
1000
0000
0010
0000
0101
0000
0100
,  // measure 132
0000
1000
0000
1010
0000
0001
0000
0101
,  // measure 133
0000
0100
0110
0000
0010
0000
1001
0000
,  // measure 134
0000
2000
0000
0000
0000
3002
0000
0000
,  // measure 135
0000
0023
0000
0000
0000
1030
0000
0100
,  // measure 136
0000
2002
0000
0000
0000
3003
0000
0000
,  // measure 137
0000
0100
0000
0100
0000
0011
0000
0010
,  // measure 138
1000
0000
0100
0000
0000
1100
0000
0000
,  // measure 139
0000
0001
0000
0100
0000
1010
0000
0100
,  // measure 140
0000
0010
0000
1001
0000
0100
0000
1001
,  // measure 141
0000
0100
1100
0000
0010
0000
0101
0000
,  // measure 142
0000
2000
0000
0000
0000
3002
0000
0000
,  // measure 143
0000
0203
0000
0000
0000
1300
0000
0001
,  // measure 144
0000
1000
0000
1100
0000
0001
0000
0101
,  // measure 145
0000
0100
1001
0000
0010
0000
1001
0000
,  // measure 146
0000
1000
0100
0010
0001
0010
0100
1000
,  // measure 147
0000
0000
0100
0001
1000
0000
1000
0000
,  // measure 148
0000
0011
0000
0100
0000
0100
0000
1010
,  // measure 149
0000
0100
1001
0000
0100
0000
0110
0000
,  // measure 150
0000
0001
0010
0100
1000
0100
0010
0001
,  // measure 151
0000
0000
0100
1000
0001
0000
0100
0000
,  // measure 152
0000
2002
0000
0000
0000
0000
0000
0000
,  // measure 153
3003
0000
0000
0000
,  // measure 154
0000
0000
0000
0000
,  // measure 155
0000
0000
0000
0000
,  // measure 156
0000
0000
0000
0000
,  // measure 157
0000
0000
0000
0000
,  // measure 158
0000
0000
0110
0000
,  // measure 159
0000
0000
0000
1000
,  // measure 160
0000
0000
0000
0000
,  // measure 161
0001
0000
0000
0000
,  // measure 162
0000
0000
1000
0000
,  // measure 163
0000
0000
0000
0000
,  // measure 164
1002
0000
0000
0000
,  // measure 165
0000
0000
0000
0000
,  // measure 166
0000
0000
0000
0000
,  // measure 167
0000
0000
0000
0000
,  // measure 168
0000
0000
0000
0000
,  // measure 169
0000
0000
0000
0000
,  // measure 170
0003
0000
0000
0000
;
