#TITLE:dance remix;
#SUBTITLE:;
#ARTIST:gods in the dancefloor;
#TITLETRANSLIT:;
#SUBTITLETRANSLIT:;
#ARTISTTRANSLIT:;
#CREDIT:;
#BANNER:;
#BACKGROUND:;
#LYRICSPATH:;
#CDTITLE:;
#MUSIC:dance remix.mp3;
#OFFSET:0.000;
#SAMPLESTART:62.750;
#SAMPLELENGTH:12.000;
#SELECTABLE:YES;
#BPMS:0.000=126.000;
#STOPS:;
#BGCHANGES:;

//---------------dance-single - ----------------
#NOTES:
     dance-single:
     :
     Hard:
     15:
     0.563,0.661,0.431,0.403,0.153: // measure 1
0100
0100
0100
0100
,  // measure 2
1000
0100
1000
0100
1000
0000
0000
0000
0001
0100
0001
0100
0001
0000
0000
0000
,  // measure 3
1000
0010
1000
0010
1000
0000
0000
0000
0001
0010
0001
0010
0001
0000
0000
0000
,  // measure 4
1000
0100
0010
0001
1000
0000
0000
0000
0001
0010
0100
1000
0001
0000
0000
0000
,  // measure 5
0100
0010
0001
0010
0100
0000
0000
0000
0010
0100
1000
0100
0010
0000
0000
0000
,  // measure 6
2001
0000
0000
0000
3000
0020
0000
0000
0000
0000
0000
0000
0230
0000
0000
0000
,  // measure 7
2300
0000
3020
0000
0032
0000
0203
0320
,  // measure 8
2000
0000
0000
0000
0000
0000
0000
0000
3030
0000
0000
0000
1000
0100
0000
0000
,  // measure 9
0100
0010
0000
0000
0010
0001
0000
0000
0001
1000
0000
0000
1000
0100
0000
0000
,  // measure 10
1001
0000
0100
0110
0000
0100
1001
0000
,  // measure 11
0110
1000
1100
0001
0101
0000
0100
0000
,  // measure 12
0210
0000
0000
0010
0000
0310
0000
0000
,  // measure 13
0102
0100
2000
3000
,  // measure 14
1003
0000
0000
0000
0100
0000
0010
0000
0001
0000
0000
0100
1000
0000
0000
0000
,  // measure 15
0110
0001
0010
0100
0010
1000
0000
0000
,  // measure 16
1100
1010
0011
0101
,  // measure 17
0110
0000
0000
0010
0100
0000
0010
0000
0100
0010
0000
0000
2002
0000
3003
0000
,  // measure 18
0100
0010
0001
0010
0001
1000
0100
0000
,  // measure 19
1000
0001
1000
0001
0220
0000
0330
0000
,  // measure 20
1000
0010
0100
0001
0010
0100
1000
0100
,  // measure 21
0010
1000
0001
0100
0202
0000
0303
0000
,  // measure 22
0010
1000
0001
0100
0010
0100
1000
0000
,  // measure 23
0010
0001
0010
0100
2200
0000
3300
0000
,  // measure 24
1000
0100
0010
0100
0001
0010
0100
0010
,  // measure 25
0001
1000
0010
0100
0220
0000
0330
0000
,  // measure 26
1000
1000
0001
0001
0100
0010
0100
0000
,  // measure 27
0010
1000
0010
0001
2002
0000
3003
0000
,  // measure 28
1000
0010
0100
0001
0010
1000
0100
0010
,  // measure 29
1000
0001
0100
0010
2002
0000
3003
0000
,  // measure 30
1000
0001
0010
0001
0100
1000
0010
0000
,  // measure 31
0001
1000
0100
1000
0220
0000
0330
0000
,  // measure 32
0010
1000
0010
0001
0010
0100
1000
0100
,  // measure 33
0001
0010
1000
0100
2002
0000
3003
0000
,  // measure 34
0011
0001
0100
1000
0010
0100
1000
0000
,  // measure 35
2000
0100
3002
0010
2003
0010
3001
0000
,  // measure 36
1010
1000
0100
0001
0100
0010
0001
0000
,  // measure 37
0020
0000
0200
0330
,  // measure 38
1100
0001
0100
0001
0010
0100
1000
0000
,  // measure 39
0200
0010
0320
0100
2030
0001
3010
0000
,  // measure 40
0101
1000
0100
1000
0010
0100
0001
0000
,  // measure 41
1000
0100
1000
0000
0001
0010
0001
0000
0100
0010
0100
0000
0010
0100
0010
0000
,  // measure 42
1001
1000
0100
0010
0001
0010
0100
0000
,  // measure 43
1000
1000
0100
0100
0001
0001
0100
0000
,  // measure 44
1001
0001
0010
0100
1000
0100
0010
0000
,  // measure 45
0010
0010
0100
0100
1000
0001
0010
0000
,  // measure 46
0110
1000
0100
0001
0010
1000
0001
0000
,  // measure 47
1000
0100
1000
0010
0001
0100
0001
0010
,  // measure 48
0110
1000
0001
1000
0001
0100
0010
0000
,  // measure 49
2002
0000
0000
3003
,  // measure 50
0110
1100
1010
0011
,  // measure 51
0101
0110
1001
0110
,  // measure 52
0101
0011
1010
1100
,  // measure 53
0110
1100
0110
0101
,  // measure 54
1000
1000
1000
0100
0100
0100
0001
0001
,  // measure 55
0001
0010
0010
0010
1000
1000
0100
0100
,  // measure 56
0001
0001
0010
0010
0100
0100
1000
0001
,  // measure 57
0100
0010
0001
0010
1000
0100
0001
0010
,  // measure 58
1001
1100
1001
0101
,  // measure 59
0110
1010
0110
0011
,  // measure 60
2001
0000
0000
0020
3000
0000
0230
0000
,  // measure 61
2000
0300
3002
0000
0023
0000
0230
0000
,  // measure 62
1300
0000
0000
0100
0000
0000
0010
0000
0000
0100
0000
0000
0010
0000
0000
0100
0000
0000
0100
0000
0010
0000
0100
0000
,  // measure 63
0110
0000
1000
0001
0100
0010
0100
1000
,  // measure 64
0001
0000
0010
0000
0100
0000
0010
0000
1000
0000
0100
0000
1000
0100
0000
0000
,  // measure 65
0010
0001
0000
0000
0100
1000
0000
0000
0001
0010
0000
0000
1000
0001
1000
0001
,  // measure 66
2000
0000
0002
3003
,  // measure 67
0000
0000
0100
0000
0000
0010
0000
0000
1000
0000
0000
0010
0000
0000
0100
0000
,  // measure 68
0000
0000
0001
0000
0000
0100
0000
0000
0010
0000
0000
1000
0000
0000
0100
0000
,  // measure 69
1000
0100
0000
0000
0001
0010
0000
0000
1000
0100
0000
0000
0001
0010
0000
0000
,  // measure 70
0000
0000
1100
0000
0000
0100
0000
0000
0001
0000
0010
0000
0000
0100
0000
0000
,  // measure 71
0000
0000
0101
0000
0000
0100
0000
0000
1000
0000
0100
0000
0000
0010
0000
0000
,  // measure 72
0000
0000
1000
0000
0000
0001
0000
0000
0100
0000
0000
0010
0000
0000
0100
0000
,  // measure 73
0010
0100
0000
0100
0010
0000
0000
0000
0010
0100
0000
0100
0010
0000
0000
0000
,  // measure 74
0000
0000
2000
0000
0000
3002
0000
0000
0203
0000
0000
0320
0000
0000
2030
0000
,  // measure 75
0000
3000
0002
0000
0000
0203
0000
0000
0320
0000
0000
2030
0000
0000
3002
0000
,  // measure 76
0000
0003
2000
0000
0000
3020
0000
0000
0230
0000
0000
0302
0000
0000
0003
0000
,  // measure 77
0010
1000
0000
1000
0010
0000
0000
0000
0100
0001
0000
0001
0100
0000
0000
0000
,  // measure 78
0000
0000
2000
0000
0000
3200
0000
0000
0320
0000
0000
0032
0000
0000
0203
0000
,  // measure 79
0000
0300
0002
0000
0000
0023
0000
0000
0230
0000
0000
2300
0000
0000
3020
0000
,  // measure 80
0000
0030
0200
0000
0000
0320
0000
0000
0230
0000
0000
0320
0000
0000
0130
0000
,  // measure 81
1001
0110
1001
0110
,  // measure 82
1000
0100
1000
0000
0001
0010
0001
0000
,  // measure 83
0100
0010
0100
0000
0010
0100
0010
0000
,  // measure 84
1000
0100
0010
0000
0001
0010
0100
0000
,  // measure 85
1100
0101
1010
0011
,  // measure 86
1000
0100
1000
0000
0001
0010
0001
0000
0100
0010
0100
0000
0010
0100
0010
0000
,  // measure 87
1000
0001
1000
0000
0001
1000
0001
0000
1000
0100
0010
0000
0001
0010
0100
0000
,  // measure 88
0010
0100
1000
0000
0100
0010
0001
0000
1000
0010
0100
0000
0001
0100
0010
0000
,  // measure 89
0110
0110
1001
0110
,  // measure 90
1000
0001
0100
0020
1030
0001
0100
0010
,  // measure 91
1000
0001
0010
0100
0001
0010
0001
1000
,  // measure 92
0100
0020
1030
0001
0100
1000
0010
0100
,  // measure 93
1100
1010
0101
0011
,  // measure 94
2001
0000
3002
0000
,  // measure 95
0023
0000
0230
0000
,  // measure 96
2300
0000
0000
0000
0020
0000
0000
0000
3230
0000
0020
0002
0300
0000
0130
0003
,  // measure 97
2000
0000
0000
0000
,  // measure 98
3001
0010
1000
0001
0100
0010
1000
0001
,  // measure 99
0100
0010
1000
0001
0100
0010
1000
0100
,  // measure 100
1000
0001
0100
0010
0001
0010
1000
0001
,  // measure 101
0100
0010
0100
1000
0001
0100
0010
1000
,  // measure 102
0001
0100
0010
0100
1000
0100
0001
0100
,  // measure 103
0020
0100
0100
0130
,  // measure 104
1000
0001
0100
0010
1000
0001
1000
0100
,  // measure 105
0010
0001
0110
0100
1000
0001
0110
0100
,  // measure 106
1001
0100
0001
0100
0010
1000
0100
0001
,  // measure 107
1000
0010
1000
0001
0100
1000
0001
0010
,  // measure 108
0110
1000
0001
0100
0010
0100
1000
0100
,  // measure 109
0020
0000
0100
0000
0100
0000
0100
0030
,  // measure 110
0011
0010
0100
1000
0001
0010
0100
0010
,  // measure 111
1100
0000
0010
0100
1000
0001
0010
0000
,  // measure 112
0100
0001
1000
0010
0100
1000
0001
0100
,  // measure 113
0010
0001
0100
0010
1000
0001
0100
0000
,  // measure 114
1001
1100
1001
0101
,  // measure 115
0110
1010
0110
0011
,  // measure 116
1100
1010
0011
0101
,  // measure 117
1001
0110
1001
0110
,  // measure 118
2000
3020
0230
0302
,  // measure 119
0203
0320
2030
3200
,  // measure 120
0310
1000
0001
0001
0100
0010
0100
1000
,  // measure 121
0110
0100
0110
0100
0110
0100
0110
0000
,  // measure 122
1001
0010
1001
0100
0110
1000
0110
0001
,  // measure 123
1100
0010
0101
0010
1010
0100
0011
0100
,  // measure 124
2000
3002
0023
0230
,  // measure 125
0302
0000
2003
0000
3200
0000
0320
0030
,  // measure 126
0100
1000
0001
0100
0010
0100
1000
0002
,  // measure 127
0000
0100
1000
0103
,  // measure 128
0010
1000
0001
0100
0010
0100
0001
2000
,  // measure 129
0000
0010
0001
3010
,  // measure 130
0210
0000
0310
0120
,  // measure 131
0000
0130
2001
0000
,  // measure 132
3001
1002
0000
1003
,  // measure 133
1000
0001
1000
0001
1000
0001
1000
0000
,  // measure 134
0010
0100
1000
0000
0010
0100
0001
0000
,  // measure 135
0100
0010
0001
0000
0100
0010
1000
0000
,  // measure 136
1100
0010
0001
0000
0101
0010
1000
0000
,  // measure 137
0110
1000
0100
0000
0110
0001
0100
0000
,  // measure 138
1001
0100
0010
1000
0001
0100
0010
0100
,  // measure 139
1000
0100
0010
0001
0010
0100
0010
0100
,  // measure 140
1001
0100
0010
1000
0001
0100
1000
0100
,  // measure 141
0010
0000
0001
0000
0010
0000
0100
0000
0010
0000
1000
0001
0100
0000
0010
0000
,  // measure 142
1001
0100
0010
1000
0100
0001
0010
1000
,  // measure 143
0001
0100
0020
0000
0100
0000
0130
0000
,  // measure 144
1000
0010
0100
0001
,  // measure 145
0010
0000
0100
0000
0010
0000
0100
0000
0010
0100
0010
0100
0010
0100
0010
0000
,  // measure 146
2002
0000
0000
0000
,  // measure 147
0000
3003
0000
0000
;
