#TITLE:burn it down;
#SUBTITLE:;
#ARTIST:Linkin Park;
#TITLETRANSLIT:;
#SUBTITLETRANSLIT:;
#ARTISTTRANSLIT:;
#CREDIT:;
#BANNER:burn it down.png;
#BACKGROUND:burn it down-bg.png;
#LYRICSPATH:;
#CDTITLE:;
#MUSIC:burn it down.mp3;
#OFFSET:0.000;
#SAMPLESTART:111.630;
#SAMPLELENGTH:12.000;
#SELECTABLE:YES;
#BPMS:0.000=110.000;
#STOPS:;
#BGCHANGES:;

//---------------dance-single - ----------------
#NOTES:
     dance-single:
     :
     Easy:
     2:
     0.123,0.112,0.000,0.000,0.000:
0000
0000
0000
0000
,
0000
0000
0000
0000
,
0000
0000
0000
0000
,
0100
0000
0100
1000
,
0000
0010
0000
0100
,
0000
0001
0000
1000
,
0000
0100
0000
1000
,
0000
0010
0000
0100
,
0000
0001
0000
0010
,
0000
0001
0000
0100
,
0000
1000
0000
0010
,
0000
0100
0000
1000
,
0000
0001
0000
0010
,
0000
0100
0000
0001
,
0000
0010
0000
1000
,
0000
0010
0000
0100
,
0000
0001
0000
0010
,
0000
0000
0001
0000
,
1000
0000
1000
0000
,
0100
0000
1000
0000
,
0100
0000
0010
0000
,
0100
0000
1000
0000
,
0001
0000
0010
0000
,
0001
0000
0010
0000
,
1000
0000
0100
0000
,
1000
0000
0010
0000
,
0001
0000
0100
0000
,
0010
0000
0001
0000
,
0010
0000
1000
0000
,
0100
0000
0001
0000
,
0010
0000
1000
0000
,
0100
0000
1000
0000
,
0010
0000
0100
0000
,
1000
0000
0100
0000
,
0001
0000
0010
0000
,
0100
0000
0010
0000
,
0001
0000
0100
0000
,
1000
0000
0010
0000
,
0100
0000
0100
0000
,
1000
0000
0010
0000
,
0001
0000
0100
0000
,
0010
0000
0100
0000
,
0010
0000
0010
0000
,
0100
0000
1000
0000
,
0010
0000
0100
0000
,
0001
0000
0010
0000
,
0001
0000
0100
0000
,
1000
0000
0100
0000
,
0010
0000
1000
0000
,
0010
0000
0100
0000
,
0010
0000
0001
0000
,
0010
0000
0100
0000
,
1000
0000
0010
0000
,
0100
0000
1000
0000
,
0100
0000
0001
0000
,
0010
0000
0100
0000
,
1000
0000
0100
0000
,
0010
0000
0001
0000
,
0010
0000
0100
0000
,
0100
0000
0010
0100
;

//---------------dance-single - Copied from----------------
#NOTES:
     dance-single:
     Copied from:
     Medium:
     4:
     0.224,0.202,0.008,0.000,0.000:
0000
0000
0000
0000
,
0000
0000
0000
0000
,
0000
0000
0000
0000
,
0100
0000
0100
1000
,
0000
0010
0000
0100
,
0010
0001
0000
1000
,
0010
0100
0000
1000
,
1000
0010
0000
0100
,
0001
0001
0000
0010
,
0100
0001
0000
0100
,
0010
1000
0000
0010
,
0001
0100
0000
1000
,
0100
0001
0000
0010
,
1000
0100
0000
0001
,
0010
0010
0000
1000
,
0010
0010
0000
0100
,
0010
0001
0000
0010
,
0100
0000
0001
0000
,
1010
0000
1000
0010
,
0100
0000
1000
0001
,
0100
1000
0010
1000
,
0100
0001
1000
0000
,
0001
0100
0010
0100
,
0001
0100
0010
0100
,
1000
0010
0100
0010
,
1000
0100
0010
0100
,
0001
1000
0100
1000
,
0010
1000
0001
1000
,
0010
0001
1000
0001
,
0100
0010
0001
0100
,
0010
0001
1000
0010
,
0100
0010
1000
0100
,
0010
0001
0100
0010
,
1000
0010
0100
1000
,
0001
0100
0010
1000
,
0100
1000
0010
0100
,
0001
0010
0100
0010
,
1000
0100
0010
1000
,
0100
0010
0100
0010
,
1000
0001
0010
1000
,
0001
0010
0100
0001
,
0010
1000
0100
0001
,
0010
1000
0010
1000
,
0100
0001
1000
0100
,
0010
0001
0100
1000
,
0001
0100
0010
0100
,
0001
0010
0100
0010
,
1000
0010
0100
1000
,
0010
0001
1000
0100
,
0010
1000
0100
0001
,
0010
1000
0001
0100
,
0010
0001
0100
0010
,
1000
0001
0010
1000
,
0100
0001
1000
0010
,
0100
1000
0001
0100
,
0010
1000
0100
0001
,
1000
0010
0100
0001
,
0010
1000
0001
1000
,
0010
1000
0100
0001
,
0100
0001
0010
0100
;

//---------------dance-single - ----------------
#NOTES:
     dance-single:
     :
     Hard:
     8:
     0.414,0.407,0.263,0.308,0.008: // measure 1
0000
0000
0000
0000
,  // measure 2
0000
0000
0000
0000
0000
0000
0100
0001
,  // measure 3
1000
0000
0100
0000
0001
0000
0010
0100
,  // measure 4
1000
0000
0000
0000
0100
0000
0000
0000
0010
0000
1000
0001
0010
0000
0100
0000
,  // measure 5
1100
0101
1100
0101
,  // measure 6
0100
0000
0000
1000
0010
0000
0100
0000
0001
0000
0000
0000
0100
0000
0010
0000
,  // measure 7
0100
0000
1000
0100
1000
0000
0001
0100
,  // measure 8
0001
0000
0010
0100
0010
0000
1200
0010
,  // measure 9
0001
0010
1000
0301
,  // measure 10
0201
0010
1000
0000
0010
0000
1300
0000
,  // measure 11
0110
0000
1100
0000
0101
0000
0100
0001
,  // measure 12
0010
1000
0100
0010
0001
0000
2000
0000
,  // measure 13
0010
0100
3010
0002
,  // measure 14
0100
0010
0103
1000
,  // measure 15
0001
0000
1000
0010
0100
0001
0000
0010
,  // measure 16
1000
0000
0100
0001
0010
0100
0020
0000
,  // measure 17
1000
0000
0001
0000
0130
0000
1000
0001
,  // measure 18
0100
0010
0010
0100
1000
0000
0200
0000
,  // measure 19
0310
0002
0013
2000
,  // measure 20
3100
0010
0010
0110
,  // measure 21
1000
0100
0001
0000
0010
0001
0110
0001
,  // measure 22
0100
1000
0100
0000
0010
1000
0000
0100
,  // measure 23
0001
0000
0010
0100
0000
0100
0001
0000
,  // measure 24
0001
0000
1000
1000
1000
0000
0021
0000
,  // measure 25
1030
1020
0031
1200
,  // measure 26
0301
0201
1300
0011
,  // measure 27
1100
1010
0101
1001
,  // measure 28
0110
0000
1000
0100
0010
0000
0002
0000
,  // measure 29
1000
0100
1003
2000
,  // measure 30
0001
0000
0100
0000
3001
0000
0000
1000
,  // measure 31
0001
0000
0100
0000
0010
0000
1000
0001
,  // measure 32
0010
0100
0001
0010
0100
1000
0110
1000
,  // measure 33
0100
0100
0001
1000
,  // measure 34
0010
1000
0100
0001
1000
0000
0100
1000
,  // measure 35
0001
0001
0010
0001
1000
0000
0100
0010
,  // measure 36
1000
1000
0001
0100
0010
0000
2000
0000
,  // measure 37
0000
0000
3000
0000
0100
0002
0000
0000
,  // measure 38
0003
1100
0101
0100
,  // measure 39
1000
0001
0100
0010
0100
0001
0000
0100
,  // measure 40
1000
0000
0010
1000
0100
0001
0020
0000
,  // measure 41
1000
0001
1030
0200
,  // measure 42
0001
0000
1000
0000
0301
0000
0010
1000
,  // measure 43
0100
0001
0100
1000
0010
0001
0000
0001
,  // measure 44
1000
0000
0100
0000
0110
0000
1000
0100
,  // measure 45
0010
1000
0010
0000
0001
0010
0100
0001
,  // measure 46
0100
1000
0010
0000
0100
0010
2000
0000
,  // measure 47
3002
2003
3002
0023
,  // measure 48
0230
0000
2300
0000
3100
0010
1000
0000
,  // measure 49
0100
0001
0010
0000
0100
1000
0001
0100
,  // measure 50
0010
0010
1000
0000
0100
0001
0020
0000
,  // measure 51
0230
0320
2030
3200
,  // measure 52
0320
0000
0032
1000
1003
0000
0110
0000
,  // measure 53
1100
1010
0101
0011
,  // measure 54
0010
1000
0100
0001
0010
0000
2100
0000
,  // measure 55
3100
0102
0103
0210
,  // measure 56
0310
0000
1000
0001
1000
0000
0010
0001
,  // measure 57
0100
0001
0100
0010
1000
0100
1000
0010
,  // measure 58
0100
1000
0010
0100
0001
0000
2100
0000
,  // measure 59
3200
0000
0302
0000
0023
0000
0130
1000
,  // measure 60
0001
0010
0001
0100
0010
1000
0220
0000
,  // measure 61
0000
0330
0000
0000
;
