#TITLE:Remember You;
#SUBTITLE:(Funny Mix 3 Charts);
#ARTIST:NM feat. Julie;
#TITLETRANSLIT:;
#SUBTITLETRANSLIT:;
#ARTISTTRANSLIT:;
#GENRE:Ballad;
#CREDIT:8Chasey 2025 / Funny Mix 3;
#MUSIC:Remember You.ogg;
#BANNER:Remember You-bn.png;
#BACKGROUND:Remember You-bg.png;
#CDTITLE:cdtitle.png;
#SAMPLESTART:64.300;
#SAMPLELENGTH:12.000;
#SELECTABLE:YES;
#OFFSET:-0.305;
#BPMS:0.000=105.000
,152.000=103.000
,154.000=97.000
,157.000=83.000
,158.000=75.000
,159.000=53.000
,160.000=45.000
;
#STOPS:;
#DISPLAYBPM:105.000;
#BGCHANGES:;
#FGCHANGES:;

//--------------- dance-single - BEGINNER (5thMIX Basic) ----------------
#NOTES:
     dance-single:
     BEGINNER (5thMIX Basic):
     Beginner:
     1:
     0.060181,0.082198,0,0,0,41,41,0,0,0,0,0.060181,0.082198,0,0,0,41,41,0,0,0,0:
0000
0000
0000
0000
,
0000
0000
0000
0000
,
0001
0000
0000
0000
,
1000
0000
0000
0000
,
0010
0000
0000
0000
,
0010
0000
0000
0000
,
1000
0000
0000
0000
,
0001
0000
0000
0000
,
0100
0000
0000
0000
,
0010
0000
0000
0000
,
1000
0000
0000
0000
,
1000
0000
0000
0000
,
0100
0000
0000
0000
,
0010
0000
0000
0000
,
0001
0000
0000
0000
,
0001
0000
0000
0000
,
0100
0000
0000
0000
,
0100
0000
0000
0000
,
0010
0000
0000
0000
,
1000
0000
1000
0000
,
0001
0000
0000
0000
,
0010
0000
0010
0000
,
0100
0000
0000
0000
,
0001
0000
0000
0000
,
0001
0000
0000
0000
,
1000
0000
0000
0000
,
1000
0000
0000
0000
,
0000
0100
0000
0000
,
0010
0000
0000
0000
,
0001
0000
0000
0000
,
1000
0000
0000
0000
,
0100
0000
0000
0000
,
0010
0000
0000
0000
,
0001
0000
0000
0000
,
1000
0000
0000
0000
,
0100
0000
0000
0000
,
0010
0000
0000
0000
,
0100
0000
0000
0000
,
0010
0000
0000
0000
,
0100
0000
0000
0000
,
0010
0000
0000
0000
;

//--------------- dance-single - NOVICE ----------------
#NOTES:
     dance-single:
     NOVICE:
     Easy:
     1:
     0.060181,0.082198,0,0,0,41,41,0,0,0,0,0.060181,0.082198,0,0,0,41,41,0,0,0,0:
0000
0000
0000
0000
,
0000
0000
0000
0000
,
0001
0000
0000
0000
,
1000
0000
0000
0000
,
1000
0000
0000
0000
,
0001
0000
0000
0000
,
1000
0000
0000
0000
,
0001
0000
0000
0000
,
0001
0000
0000
0000
,
1000
0000
0000
0000
,
0100
0000
0000
0000
,
1000
0000
0000
0000
,
0001
0000
0000
0000
,
0100
0000
0000
0000
,
0010
0000
0000
0000
,
0001
0000
0000
0000
,
0010
0000
0000
0000
,
1000
0000
0000
0000
,
0001
0000
0001
0000
,
1000
0000
0000
0000
,
1000
0000
1000
0000
,
0001
0000
0000
0000
,
0100
0000
0000
0000
,
0100
0000
0000
0000
,
0001
0000
1000
0000
,
0001
0000
1000
0000
,
0001
0000
0000
0000
,
0001
0000
0000
0000
,
1000
0000
0000
0000
,
1000
0000
0000
0000
,
0010
0000
0000
0000
,
1000
0000
0000
0000
,
0010
0000
0000
0000
,
0001
0000
0000
0000
,
0100
0000
0000
0000
,
0010
0000
0000
0000
,
0000
0000
0000
0000
,
0000
0000
0000
0000
,
0001
0000
0000
0000
,
0001
0000
0000
0000
,
1000
0000
0000
0000
;

//--------------- dance-single - REAL ----------------
#NOTES:
     dance-single:
     REAL:
     Medium:
     3:
     0.190817,0.226044,0,0,0,130,130,0,0,0,0,0.190817,0.226044,0,0,0,130,130,0,0,0,0:
0000
0000
0000
0000
,
0000
0000
0000
0000
,
1000
0001
1000
0000
,
0100
1000
0100
0000
,
0100
1000
0001
0000
,
0001
1000
0001
0000
,
0001
0100
0001
0000
,
1000
0100
1000
0000
,
0001
0000
0100
0000
,
1000
0000
0100
0000
,
0010
0001
1000
0000
,
0010
1000
0001
0000
,
0000
0100
0100
0000
0000
0000
0000
0000
,
0001
1000
0001
0000
,
1000
0000
0010
0000
,
0001
0000
0010
0000
,
0001
0100
0001
0000
,
1000
0100
1000
0001
,
0100
0000
0001
1000
0000
0000
0100
0000
,
0000
0000
1000
0010
0000
0000
1000
0000
,
0001
0010
0100
0010
,
0001
1000
0010
0000
,
1000
0000
0010
0100
0000
0000
0100
0000
,
0001
0000
1000
0001
0000
0000
0010
0000
,
0001
0000
0000
0000
1000
0000
0000
0100
,
0000
1000
0001
0000
0000
0000
0100
0000
,
0001
0010
0000
0001
,
1000
0000
0000
0100
0000
1000
0001
0000
,
0100
0010
1000
0001
,
0100
0000
0100
0001
,
1000
0000
0000
0100
0000
0000
1000
0000
,
0010
0100
0001
0000
,
1000
0000
0010
0100
,
0001
1000
0100
0010
,
0001
0000
0000
0000
0010
0000
0001
1000
,
0000
0100
0000
0100
,
0000
0000
0000
1000
0000
0000
0000
0000
,
0000
0000
0000
0000
,
0001
0001
0010
0001
,
1000
0100
0001
0000
,
1000
0000
0000
0000
;

//--------------- dance-single - MASTER ----------------
#NOTES:
     dance-single:
     MASTER:
     Hard:
     5:
     0.289161,0.287693,0,0,0,197,197,0,0,0,0,0.289161,0.287693,0,0,0,197,197,0,0,0,0:
0000
0000
0000
0000
,
0000
0000
0000
0000
,
0001
0000
1000
0001
0000
0000
1000
0000
,
0100
1000
0010
0100
,
0000
0010
1000
0000
0001
0000
1000
0000
,
0100
0010
0001
1000
,
1000
0000
0010
1000
0000
0001
1000
0000
,
0001
0000
0100
0001
0000
0010
0001
0000
,
1000
0100
1000
0010
,
0100
0001
0010
0100
,
0010
0000
0001
0010
0000
0000
0001
0000
,
1000
0000
0100
1000
0100
0000
0010
0000
,
0000
0001
0001
0000
0000
0000
0010
0000
,
0001
0100
1000
0010
,
1000
0000
0100
1000
0000
0000
0001
0000
,
0001
0000
0100
0001
0000
0000
1000
0000
,
0100
0100
0010
0010
,
0001
1000
0001
1000
0100
0000
0010
0000
,
1000
0000
1000
0100
0010
0000
0010
0001
,
1000
0000
0001
0001
0000
0100
0001
1000
,
0010
0000
1000
0001
0010
0000
0100
0000
,
1000
0000
0001
1000
0000
0001
0010
0001
,
0100
0000
0010
1000
0000
0100
1000
0000
,
0001
0000
1000
0001
0000
1000
0100
0000
,
1000
0000
1000
0000
0010
0000
0010
1000
,
0000
0001
1000
0000
0001
0000
0010
0000
,
0001
0000
0100
0100
0001
1000
0100
0000
,
0010
0000
0100
0010
0000
0001
1000
0100
,
1000
0000
0010
1000
0000
0001
1000
0000
,
0100
0000
0100
0010
0000
0001
1000
0001
,
0100
0000
0010
1000
0000
1000
0001
0001
,
1000
0000
0100
1000
0000
0001
0100
0000
,
0001
0000
0010
0000
1000
0000
0100
1000
,
0000
0001
1000
0000
0000
0010
0100
0010
,
1000
0000
0100
0000
1000
0000
0001
1000
,
0000
0001
0010
0000
0100
1000
0001
0100
,
0010
0000
0000
1000
0000
0000
0000
0000
,
0000
0000
0000
0000
,
0001
1000
0001
1000
0100
0000
1000
0010
,
0000
0100
0001
0010
0100
0000
0010
0000
,
0001
0000
0000
0000
;

//--------------- dance-single - ADVANCED (5thMIX Expert) ----------------
#NOTES:
     dance-single:
     ADVANCED (5thMIX Expert):
     Challenge:
     5:
     0,0,0,0,0:
0000
0000
0000
0000
,
0000
0000
0000
0000
,
1000
0100
0010
0001
0000
1000
0100
0000
,
0010
0000
0001
1000
0000
0100
0010
0000
,
0001
1000
0010
0100
,
0001
0010
0100
1000
0000
0001
0100
0010
,
1000
0100
0010
0001
0000
1000
0100
0000
,
0010
0001
1000
0010
,
0100
0001
0010
0000
0100
1000
0001
0100
,
0010
0000
1000
0000
0100
0010
0100
0000
,
1000
0000
1000
0000
0001
0100
0001
0000
,
1000
0100
0010
0001
1000
1000
0100
0000
,
0010
0000
0001
0000
0100
0010
0100
0000
,
0001
1000
0100
0000
0001
1000
0100
0000
,
0010
0000
0001
0000
1000
0010
0100
0000
,
0001
0000
1000
0000
0100
0010
0001
0000
,
1000
0010
0100
0001
,
1000
0100
0010
0001
,
1000
0000
0000
0000
0010
0000
0100
0001
,
0010
0000
0100
1000
0001
0100
0001
0000
,
1000
0000
0100
0010
0100
1000
0001
0000
,
0100
0000
0010
1000
0010
0100
0001
0000
,
1000
0000
0100
0010
0001
0100
0010
0000
,
1000
0100
1000
0100
0000
0001
0100
0000
,
0010
1000
0010
1000
0000
0001
0100
0000
,
0010
1000
0100
0010
,
0001
1000
0100
0010
0000
0000
0000
0000
,
0000
0001
1000
0100
0000
0000
0000
0000
,
0010
0001
0100
0001
0000
0000
1000
0000
,
0100
0010
0001
0010
0000
0000
0100
0000
,
1000
0001
0100
0000
1000
0001
0100
0000
,
0010
0000
1000
0000
0100
0010
0001
0000
,
1000
0000
1000
0000
0010
0100
0001
0000
,
1000
0000
1000
0100
0000
0010
0001
0000
,
0100
0010
0100
0000
0001
0010
0001
0000
,
1000
0100
1000
0100
0000
0010
0001
0100
,
0010
1000
0000
0000
0001
0000
0001
0000
,
0010
0100
1000
0100
0000
0000
0010
0000
,
0001
0000
0000
0000
1000
0000
0100
0010
,
0001
0000
1000
0010
,
0100
0000
0000
0000
;

//--------------- dance-double - DOUBLE (5thMIX D-Basic) ----------------
#NOTES:
     dance-double:
     DOUBLE (5thMIX D-Basic):
     Easy:
     1:
     0.068988,0.102747,0,0,0,47,47,0,0,0,0,0.068988,0.102747,0,0,0,47,47,0,0,0,0:
00000000
00000000
00000000
00000000
,
00000000
00000000
00000000
00000000
,
10000000
00000000
00000000
00000000
,
01000000
00000000
00000000
00000000
,
00100000
00000000
00000000
00000000
,
00001000
00000000
00000000
00000000
,
00010000
00000000
00000000
00000000
,
00000010
00000000
00000000
00000000
,
00001000
00000000
00000000
00000000
,
00000100
00000000
00000000
00000000
,
00010000
00000000
00000000
00000000
,
00001000
00000000
00000000
00000000
,
00100000
00000000
00000000
00000000
,
00010000
00000000
00000000
00000000
,
10000000
00000000
00000000
00000000
,
01000000
00000000
00000000
00000000
,
00100000
00000000
00000000
00000000
,
00001000
00000000
00000000
00000000
,
00010000
00000000
00000000
00000000
,
00001000
00000000
00001000
00000000
,
00100000
00000000
00100000
00000000
,
00010000
00000000
00010000
00000000
,
10000000
00000000
10000000
00000000
,
01000000
00000000
00000000
00000000
,
00100000
00000000
00000000
00000000
,
00001000
00000000
00000000
00000000
,
00010000
00000000
00000000
00000000
,
00000000
00001000
00000000
00000000
,
00100000
00000000
00000000
00000000
,
01000000
00000000
00000000
00000000
,
10000000
00000000
00010000
00000000
,
01000000
00000000
00001000
00000000
,
00010000
00000000
00000000
00000000
,
00000010
00000000
00000000
00000000
,
00001000
00000000
00000000
00000000
,
00000100
00000000
00000100
00000000
,
00000010
00000000
00000000
00000000
,
00000100
00000000
00010000
00000000
,
00001000
00000000
00000000
00000000
,
00100000
00000000
00000000
00000000
,
01000000
00000000
00000000
00000000
;
